  0
SECTION
  2
HEADER
  9
$ACADVER
  1
AC1015
  9
$ACADMAINTVER
 70
    18
  9
$DWGCODEPAGE
  3
ANSI_1252
  9
$INSBASE
 10
0.0
 20
0.0
 30
0.0
  9
$EXTMIN
 10
0.0
 20
0.0
 30
0.0
  9
$EXTMAX
 10
297.0
 20
210.0
 30
0.0
  9
$LIMMIN
 10
0.0
 20
0.0
  9
$LIMMAX
 10
297.0
 20
210.0
  9
$ORTHOMODE
 70
     0
  9
$REGENMODE
 70
     1
  9
$FILLMODE
 70
     1
  9
$QTEXTMODE
 70
     0
  9
$MIRRTEXT
 70
     0
  9
$LTSCALE
 40
1.0
  9
$ATTMODE
 70
     1
  9
$TEXTSIZE
 40
0.2
  9
$TRACEWID
 40
0.05
  9
$TEXTSTYLE
  7
Standard
  9
$CLAYER
  8
0
  9
$CELTYPE
  6
ByLayer
  9
$CECOLOR
 62
   256
  9
$CELTSCALE
 40
1.0
  9
$DISPSILH
 70
     0
  9
$DIMSCALE
 40
1.0
  9
$DIMASZ
 40
1.799999999999999
  9
$DIMEXO
 40
0.0625
  9
$DIMDLI
 40
0.38
  9
$DIMRND
 40
0.0
  9
$DIMDLE
 40
0.0
  9
$DIMEXE
 40
0.18
  9
$DIMTP
 40
0.0
  9
$DIMTM
 40
0.0
  9
$DIMTXT
 40
0.3499999940395355
  9
$DIMCEN
 40
0.09
  9
$DIMTSZ
 40
0.0
  9
$DIMTOL
 70
     0
  9
$DIMLIM
 70
     0
  9
$DIMTIH
 70
     1
  9
$DIMTOH
 70
     1
  9
$DIMSE1
 70
     0
  9
$DIMSE2
 70
     0
  9
$DIMTAD
 70
     0
  9
$DIMZIN
 70
     0
  9
$DIMBLK
  1

  9
$DIMASO
 70
     1
  9
$DIMSHO
 70
     1
  9
$DIMPOST
  1

  9
$DIMAPOST
  1

  9
$DIMALT
 70
     0
  9
$DIMALTD
 70
     2
  9
$DIMALTF
 40
25.4
  9
$DIMLFAC
 40
1.0
  9
$DIMTOFL
 70
     0
  9
$DIMTVP
 40
0.0
  9
$DIMTIX
 70
     0
  9
$DIMSOXD
 70
     0
  9
$DIMSAH
 70
     0
  9
$DIMBLK1
  1

  9
$DIMBLK2
  1

  9
$DIMSTYLE
  2
Standard
  9
$DIMCLRD
 70
     0
  9
$DIMCLRE
 70
     0
  9
$DIMCLRT
 70
     0
  9
$DIMTFAC
 40
1.0
  9
$DIMGAP
 40
0.09
  9
$DIMJUST
 70
     0
  9
$DIMSD1
 70
     0
  9
$DIMSD2
 70
     0
  9
$DIMTOLJ
 70
     1
  9
$DIMTZIN
 70
     0
  9
$DIMALTZ
 70
     0
  9
$DIMALTTZ
 70
     0
  9
$DIMUPT
 70
     0
  9
$DIMDEC
 70
     4
  9
$DIMTDEC
 70
     4
  9
$DIMALTU
 70
     2
  9
$DIMALTTD
 70
     2
  9
$DIMTXSTY
  7
Standard
  9
$DIMAUNIT
 70
     0
  9
$DIMADEC
 70
     0
  9
$DIMALTRND
 40
0.0
  9
$DIMAZIN
 70
     0
  9
$DIMDSEP
 70
    46
  9
$DIMATFIT
 70
     3
  9
$DIMFRAC
 70
     0
  9
$DIMLDRBLK
  1

  9
$DIMLUNIT
 70
     2
  9
$DIMLWD
 70
    -2
  9
$DIMLWE
 70
    -2
  9
$DIMTMOVE
 70
     0
  9
$LUNITS
 70
     2
  9
$LUPREC
 70
     4
  9
$SKETCHINC
 40
0.1
  9
$FILLETRAD
 40
0.0
  9
$AUNITS
 70
     0
  9
$AUPREC
 70
     0
  9
$MENU
  1
.
  9
$ELEVATION
 40
0.0
  9
$PELEVATION
 40
0.0
  9
$THICKNESS
 40
0.0
  9
$LIMCHECK
 70
     0
  9
$CHAMFERA
 40
0.0
  9
$CHAMFERB
 40
0.0
  9
$CHAMFERC
 40
0.0
  9
$CHAMFERD
 40
0.0
  9
$SKPOLY
 70
     0
  9
$TDCREATE
 40
2454105.734730671
  9
$TDUCREATE
 40
2454105.693064005
  9
$TDUPDATE
 40
2454105.734730671
  9
$TDUUPDATE
 40
2454105.693064005
  9
$TDINDWG
 40
0.0000812037
  9
$TDUSRTIMER
 40
0.0000812037
  9
$USRTIMER
 70
     1
  9
$ANGBASE
 50
0.0
  9
$ANGDIR
 70
     0
  9
$PDMODE
 70
     0
  9
$PDSIZE
 40
0.0
  9
$PLINEWID
 40
0.0
  9
$SPLFRAME
 70
     0
  9
$SPLINETYPE
 70
     6
  9
$SPLINESEGS
 70
     8
  9
$HANDSEED
  5
B4D
  9
$SURFTAB1
 70
     6
  9
$SURFTAB2
 70
     6
  9
$SURFTYPE
 70
     6
  9
$SURFU
 70
     6
  9
$SURFV
 70
     6
  9
$UCSBASE
  2

  9
$UCSNAME
  2

  9
$UCSORG
 10
0.0
 20
0.0
 30
0.0
  9
$UCSXDIR
 10
1.0
 20
0.0
 30
0.0
  9
$UCSYDIR
 10
0.0
 20
1.0
 30
0.0
  9
$UCSORTHOREF
  2

  9
$UCSORTHOVIEW
 70
     0
  9
$UCSORGTOP
 10
0.0
 20
0.0
 30
0.0
  9
$UCSORGBOTTOM
 10
0.0
 20
0.0
 30
0.0
  9
$UCSORGLEFT
 10
0.0
 20
0.0
 30
0.0
  9
$UCSORGRIGHT
 10
0.0
 20
0.0
 30
0.0
  9
$UCSORGFRONT
 10
0.0
 20
0.0
 30
0.0
  9
$UCSORGBACK
 10
0.0
 20
0.0
 30
0.0
  9
$PUCSBASE
  2

  9
$PUCSNAME
  2

  9
$PUCSORG
 10
0.0
 20
0.0
 30
0.0
  9
$PUCSXDIR
 10
1.0
 20
0.0
 30
0.0
  9
$PUCSYDIR
 10
0.0
 20
1.0
 30
0.0
  9
$PUCSORTHOREF
  2

  9
$PUCSORTHOVIEW
 70
     0
  9
$PUCSORGTOP
 10
0.0
 20
0.0
 30
0.0
  9
$PUCSORGBOTTOM
 10
0.0
 20
0.0
 30
0.0
  9
$PUCSORGLEFT
 10
0.0
 20
0.0
 30
0.0
  9
$PUCSORGRIGHT
 10
0.0
 20
0.0
 30
0.0
  9
$PUCSORGFRONT
 10
0.0
 20
0.0
 30
0.0
  9
$PUCSORGBACK
 10
0.0
 20
0.0
 30
0.0
  9
$USERI1
 70
     0
  9
$USERI2
 70
     0
  9
$USERI3
 70
     0
  9
$USERI4
 70
     0
  9
$USERI5
 70
     0
  9
$USERR1
 40
0.0
  9
$USERR2
 40
0.0
  9
$USERR3
 40
0.0
  9
$USERR4
 40
0.0
  9
$USERR5
 40
0.0
  9
$WORLDVIEW
 70
     1
  9
$SHADEDGE
 70
     3
  9
$SHADEDIF
 70
    70
  9
$TILEMODE
 70
     1
  9
$MAXACTVP
 70
    64
  9
$PINSBASE
 10
0.0
 20
0.0
 30
0.0
  9
$PLIMCHECK
 70
     0
  9
$PEXTMIN
 10
0.0
 20
0.0
 30
0.0
  9
$PEXTMAX
 10
297.0
 20
210.0
 30
0.0
  9
$PLIMMIN
 10
0.0
 20
0.0
  9
$PLIMMAX
 10
297.0
 20
210.0
  9
$UNITMODE
 70
     0
  9
$VISRETAIN
 70
     1
  9
$PLINEGEN
 70
     0
  9
$PSLTSCALE
 70
     1
  9
$TREEDEPTH
 70
  3020
  9
$CMLSTYLE
  2
Standard
  9
$CMLJUST
 70
     0
  9
$CMLSCALE
 40
1.0
  9
$PROXYGRAPHICS
 70
     1
  9
$MEASUREMENT
 70
     1
  9
$CELWEIGHT
370
    -1
  9
$ENDCAPS
280
     0
  9
$JOINSTYLE
280
     0
  9
$LWDISPLAY
290
     0
  9
$INSUNITS
 70
     0
  9
$HYPERLINKBASE
  1

  9
$STYLESHEET
  1

  9
$XEDIT
290
     1
  9
$CEPSNTYPE
380
     0
  9
$PSTYLEMODE
290
     1
  9
$FINGERPRINTGUID
  2
{93C8CD74-5370-4B59-B7E4-25C141B18F0E}
  9
$VERSIONGUID
  2
{0C20854C-6D53-4AAA-AE63-130781EF843C}
  9
$EXTNAMES
290
     1
  9
$PSVPSCALE
 40
0.0
  9
$OLESTARTUP
290
     0
  0
ENDSEC
  0
SECTION
  2
CLASSES
  0
CLASS
  1
ACDBDICTIONARYWDFLT
  2
AcDbDictionaryWithDefault
  3
ObjectDBX Classes
 90
        0
280
     0
281
     0
  0
CLASS
  1
MATERIAL
  2
AcDbMaterial
  3
ObjectDBX Classes
 90
     1024
280
     0
281
     0
  0
CLASS
  1
VISUALSTYLE
  2
AcDbVisualStyle
  3
ObjectDBX Classes
 90
     4095
280
     0
281
     0
  0
CLASS
  1
TABLESTYLE
  2
AcDbTableStyle
  3
ObjectDBX Classes
 90
     4095
280
     0
281
     0
  0
CLASS
  1
DICTIONARYVAR
  2
AcDbDictionaryVar
  3
ObjectDBX Classes
 90
        0
280
     0
281
     0
  0
CLASS
  1
ACDBPLACEHOLDER
  2
AcDbPlaceHolder
  3
ObjectDBX Classes
 90
        0
280
     0
281
     0
  0
CLASS
  1
LAYOUT
  2
AcDbLayout
  3
ObjectDBX Classes
 90
        0
280
     0
281
     0
  0
ENDSEC
  0
SECTION
  2
TABLES
  0
TABLE
  2
VPORT
  5
8
330
0
100
AcDbSymbolTable
 70
     1
  0
VPORT
  5
28
330
8
100
AcDbSymbolTableRecord
100
AcDbViewportTableRecord
  2
*Active
 70
     0
 10
0.0
 20
0.0
 11
1.0
 21
1.0
 12
148.5
 22
105.0
 13
0.0
 23
0.0
 14
1.0
 24
1.0
 15
0.0
 25
0.0
 16
0.0
 26
0.0
 36
1.0
 17
0.0
 27
0.0
 37
0.0
 40
210.0
 41
1.414285714285714
 42
50.0
 43
0.0
 44
0.0
 50
0.0
 51
0.0
 71
     0
 72
   100
 73
     1
 74
     1
 75
     0
 76
     0
 77
     0
 78
     0
281
     0
 65
     1
110
0.0
120
0.0
130
0.0
111
1.0
121
0.0
131
0.0
112
0.0
122
1.0
132
0.0
 79
     0
146
0.0
  0
ENDTAB
  0
TABLE
  2
LTYPE
  5
5
330
0
100
AcDbSymbolTable
 70
    59
  0
LTYPE
  5
29
330
5
100
AcDbSymbolTableRecord
100
AcDbLinetypeTableRecord
  2
ByBlock
 70
     0
  3

 72
    65
 73
     0
 40
0.0
  0
LTYPE
  5
2A
330
5
100
AcDbSymbolTableRecord
100
AcDbLinetypeTableRecord
  2
ByLayer
 70
     0
  3

 72
    65
 73
     0
 40
0.0
  0
LTYPE
  5
2B
330
5
100
AcDbSymbolTableRecord
100
AcDbLinetypeTableRecord
  2
Continuous
 70
     0
  3
Solid line
 72
    65
 73
     0
 40
0.0
  0
LTYPE
  5
40
330
5
100
AcDbSymbolTableRecord
100
AcDbLinetypeTableRecord
  2
BY_STANDARD
 70
     0
  3
By Standard ____________    ____    ____   _
 72
    65
 73
     6
 40
1.240299999999999
 49
0.6614
 74
     0
 49
-0.0827
 74
     0
 49
0.1654
 74
     0
 49
-0.0827
 74
     0
 49
0.1654
 74
     0
 49
-0.0827
 74
     0
  0
LTYPE
  5
41
330
5
100
AcDbSymbolTableRecord
100
AcDbLinetypeTableRecord
  2
CHAIN
 70
     0
  3
Chain ____ _ ____ _ ____ _ ____ _ ____ _ ____
 72
    65
 73
     4
 40
0.7087
 49
0.4724000000000001
 74
     0
 49
-0.0591
 74
     0
 49
0.1181
 74
     0
 49
-0.0591
 74
     0
  0
LTYPE
  5
42
330
5
100
AcDbSymbolTableRecord
100
AcDbLinetypeTableRecord
  2
DASH_DOT
 70
     0
  3
Dash dot __ . __ . __ . __ . __ . __ . __ . __
 72
    65
 73
     4
 40
0.37
 49
0.24
 74
     0
 49
-0.06
 74
     0
 49
0.01
 74
     0
 49
-0.06
 74
     0
  0
LTYPE
  5
43
330
5
100
AcDbSymbolTableRecord
100
AcDbLinetypeTableRecord
  2
DOUBLE_DASH_DOT
 70
     0
  3
Double-Dash Dot __ __ . __ __ . __ __ . __ _
 72
    65
 73
     6
 40
0.4398
 49
0.24
 74
     0
 49
-0.06
 74
     0
 49
0.0098
 74
     0
 49
-0.06
 74
     0
 49
0.01
 74
     0
 49
-0.06
 74
     0
  0
LTYPE
  5
44
330
5
100
AcDbSymbolTableRecord
100
AcDbLinetypeTableRecord
  2
DASH_TRIPLE_DOT
 70
     0
  3
Dash Triple-Dot _ . . . _ . . . _ . . . _
 72
    65
 73
     8
 40
0.51
 49
0.24
 74
     0
 49
-0.06
 74
     0
 49
0.01
 74
     0
 49
-0.06
 74
     0
 49
0.01
 74
     0
 49
-0.06
 74
     0
 49
0.01
 74
     0
 49
-0.06
 74
     0
  0
LTYPE
  5
45
330
5
100
AcDbSymbolTableRecord
100
AcDbLinetypeTableRecord
  2
DASHED
 70
     0
  3
Dashed __ __ __ __ __ __ __ __ __ __ __ __ __ _
 72
    65
 73
     2
 40
0.2067
 49
0.1654
 74
     0
 49
-0.0413
 74
     0
  0
LTYPE
  5
46
330
5
100
AcDbSymbolTableRecord
100
AcDbLinetypeTableRecord
  2
DASH_DOUBLE_DOT
 70
     0
  3
Dash Double-Dot __ . . __ . . __ . . __ . .
 72
    65
 73
     6
 40
0.4398
 49
0.24
 74
     0
 49
-0.06
 74
     0
 49
0.0098
 74
     0
 49
-0.06
 74
     0
 49
0.01
 74
     0
 49
-0.06
 74
     0
  0
LTYPE
  5
47
330
5
100
AcDbSymbolTableRecord
100
AcDbLinetypeTableRecord
  2
DASHED_SPACE
 70
     0
  3
Dashed Space __ __ __ __ __ __ __ __ __ __ __ _
 72
    65
 73
     2
 40
0.2067
 49
0.1654
 74
     0
 49
-0.0413
 74
     0
  0
LTYPE
  5
48
330
5
100
AcDbSymbolTableRecord
100
AcDbLinetypeTableRecord
  2
DOTTED
 70
     0
  3
Dotted . . . . . . . . . . . . . . . . . . . . 
 72
    65
 73
     2
 40
0.0482
 49
0.0069
 74
     0
 49
-0.0413
 74
     0
  0
LTYPE
  5
49
330
5
100
AcDbSymbolTableRecord
100
AcDbLinetypeTableRecord
  2
DOUBLE_DASH_CHAIN
 70
     0
  3
Double-Dash Chain ______  __  __  ______  __  _
 72
    65
 73
     6
 40
1.240299999999999
 49
0.6614
 74
     0
 49
-0.0827
 74
     0
 49
0.1654
 74
     0
 49
-0.0827
 74
     0
 49
0.1654
 74
     0
 49
-0.0827
 74
     0
  0
LTYPE
  5
4B
330
5
100
AcDbSymbolTableRecord
100
AcDbLinetypeTableRecord
  2
DOUBLE_DASH_DOUBLE_DOT
 70
     0
  3
Double-Dash Double-dot _ _ . . _ _ . . _
 72
    65
 73
     8
 40
0.7400000000000001
 49
0.24
 74
     0
 49
-0.06
 74
     0
 49
0.24
 74
     0
 49
-0.06
 74
     0
 49
0.01
 74
     0
 49
-0.06
 74
     0
 49
0.01
 74
     0
 49
-0.06
 74
     0
  0
LTYPE
  5
4C
330
5
100
AcDbSymbolTableRecord
100
AcDbLinetypeTableRecord
  2
DOUBLE_DASH_TRIPLE_DOT
 70
     0
  3
Double Dash Triple Dot __ __ . . . __ __ . .
 72
    65
 73
    10
 40
0.8100000000000001
 49
0.24
 74
     0
 49
-0.06
 74
     0
 49
0.24
 74
     0
 49
-0.06
 74
     0
 49
0.01
 74
     0
 49
-0.06
 74
     0
 49
0.01
 74
     0
 49
-0.06
 74
     0
 49
0.01
 74
     0
 49
-0.06
 74
     0
  0
LTYPE
  5
4D
330
5
100
AcDbSymbolTableRecord
100
AcDbLinetypeTableRecord
  2
LONG_DASH_DOTTED
 70
     0
  3
Long Dash Dotted ____ . ____ . ____ . ____ . _
 72
    65
 73
     4
 40
0.3543
 49
0.2362
 74
     0
 49
-0.0295
 74
     0
 49
0.0591
 74
     0
 49
-0.0295
 74
     0
  0
LTYPE
  5
4E
330
5
100
AcDbSymbolTableRecord
100
AcDbLinetypeTableRecord
  2
LONG_DASH_DOUBLE_DOT
 70
     0
  3
Long Dash Double Dot ________  .  .  ________  
 72
    65
 73
     6
 40
0.6799999999999999
 49
0.48
 74
     0
 49
-0.06
 74
     0
 49
0.01
 74
     0
 49
-0.06
 74
     0
 49
0.01
 74
     0
 49
-0.06
 74
     0
  0
LTYPE
  5
4F
330
5
100
AcDbSymbolTableRecord
100
AcDbLinetypeTableRecord
  2
LONG_DASH_TRIPLE_DOT
 70
     0
  3
Long Dash Triple Dot ____ ... ____ ... ____
 72
    65
 73
     8
 40
0.3689
 49
0.2362
 74
     0
 49
-0.0295
 74
     0
 49
0.0049
 74
     0
 49
-0.0295
 74
     0
 49
0.0049
 74
     0
 49
-0.0295
 74
     0
 49
0.0049
 74
     0
 49
-0.0295
 74
     0
  0
LTYPE
  5
50
330
5
100
AcDbSymbolTableRecord
100
AcDbLinetypeTableRecord
  2
BORDER
 70
     0
  3
Border __ __ . __ __ . __ __ . __ __ . __ __ .
 72
    65
 73
     6
 40
1.75
 49
0.5
 74
     0
 49
-0.25
 74
     0
 49
0.5
 74
     0
 49
-0.25
 74
     0
 49
0.0
 74
     0
 49
-0.25
 74
     0
  0
LTYPE
  5
51
330
5
100
AcDbSymbolTableRecord
100
AcDbLinetypeTableRecord
  2
BORDER2
 70
     0
  3
Border (.5x) __.__.__.__.__.__.__.__.__.__.__.
 72
    65
 73
     6
 40
0.875
 49
0.25
 74
     0
 49
-0.125
 74
     0
 49
0.25
 74
     0
 49
-0.125
 74
     0
 49
0.0
 74
     0
 49
-0.125
 74
     0
  0
LTYPE
  5
52
330
5
100
AcDbSymbolTableRecord
100
AcDbLinetypeTableRecord
  2
BORDERX2
 70
     0
  3
Border (2x) ____  ____  .  ____  ____  .  ___
 72
    65
 73
     6
 40
3.5
 49
1.0
 74
     0
 49
-0.5
 74
     0
 49
1.0
 74
     0
 49
-0.5
 74
     0
 49
0.0
 74
     0
 49
-0.5
 74
     0
  0
LTYPE
  5
53
330
5
100
AcDbSymbolTableRecord
100
AcDbLinetypeTableRecord
  2
CENTER
 70
     0
  3
Center ____ _ ____ _ ____ _ ____ _ ____ _ ____
 72
    65
 73
     4
 40
2.0
 49
1.25
 74
     0
 49
-0.25
 74
     0
 49
0.25
 74
     0
 49
-0.25
 74
     0
  0
LTYPE
  5
54
330
5
100
AcDbSymbolTableRecord
100
AcDbLinetypeTableRecord
  2
CENTER2
 70
     0
  3
Center (.5x) ___ _ ___ _ ___ _ ___ _ ___ _ ___
 72
    65
 73
     4
 40
1.125
 49
0.75
 74
     0
 49
-0.125
 74
     0
 49
0.125
 74
     0
 49
-0.125
 74
     0
  0
LTYPE
  5
55
330
5
100
AcDbSymbolTableRecord
100
AcDbLinetypeTableRecord
  2
CENTERX2
 70
     0
  3
Center (2x) ________  __  ________  __  _____
 72
    65
 73
     4
 40
4.0
 49
2.5
 74
     0
 49
-0.5
 74
     0
 49
0.5
 74
     0
 49
-0.5
 74
     0
  0
LTYPE
  5
56
330
5
100
AcDbSymbolTableRecord
100
AcDbLinetypeTableRecord
  2
DASHDOT2
 70
     0
  3
Dash dot (.5x) _._._._._._._._._._._._._._._.
 72
    65
 73
     4
 40
0.5
 49
0.25
 74
     0
 49
-0.125
 74
     0
 49
0.0
 74
     0
 49
-0.125
 74
     0
  0
LTYPE
  5
57
330
5
100
AcDbSymbolTableRecord
100
AcDbLinetypeTableRecord
  2
DASHDOTX2
 70
     0
  3
Dash dot (2x) ____  .  ____  .  ____  .  ___
 72
    65
 73
     4
 40
2.0
 49
1.0
 74
     0
 49
-0.5
 74
     0
 49
0.0
 74
     0
 49
-0.5
 74
     0
  0
LTYPE
  5
59
330
5
100
AcDbSymbolTableRecord
100
AcDbLinetypeTableRecord
  2
DASHED2
 70
     0
  3
Dashed (.5x) _ _ _ _ _ _ _ _ _ _ _ _ _ _ _ _ _
 72
    65
 73
     2
 40
0.375
 49
0.25
 74
     0
 49
-0.125
 74
     0
  0
LTYPE
  5
5A
330
5
100
AcDbSymbolTableRecord
100
AcDbLinetypeTableRecord
  2
DASHEDX2
 70
     0
  3
Dashed (2x) ____  ____  ____  ____  ____  ___
 72
    65
 73
     2
 40
1.5
 49
1.0
 74
     0
 49
-0.5
 74
     0
  0
LTYPE
  5
5B
330
5
100
AcDbSymbolTableRecord
100
AcDbLinetypeTableRecord
  2
DIVIDE
 70
     0
  3
Divide ____ . . ____ . . ____ . . ____ . . ____
 72
    65
 73
     6
 40
1.25
 49
0.5
 74
     0
 49
-0.25
 74
     0
 49
0.0
 74
     0
 49
-0.25
 74
     0
 49
0.0
 74
     0
 49
-0.25
 74
     0
  0
LTYPE
  5
5C
330
5
100
AcDbSymbolTableRecord
100
AcDbLinetypeTableRecord
  2
DIVIDE2
 70
     0
  3
Divide (.5x) __..__..__..__..__..__..__..__.._
 72
    65
 73
     6
 40
0.625
 49
0.25
 74
     0
 49
-0.125
 74
     0
 49
0.0
 74
     0
 49
-0.125
 74
     0
 49
0.0
 74
     0
 49
-0.125
 74
     0
  0
LTYPE
  5
5D
330
5
100
AcDbSymbolTableRecord
100
AcDbLinetypeTableRecord
  2
DIVIDEX2
 70
     0
  3
Divide (2x) ________  .  .  ________  .  .  _
 72
    65
 73
     6
 40
2.5
 49
1.0
 74
     0
 49
-0.5
 74
     0
 49
0.0
 74
     0
 49
-0.5
 74
     0
 49
0.0
 74
     0
 49
-0.5
 74
     0
  0
LTYPE
  5
5E
330
5
100
AcDbSymbolTableRecord
100
AcDbLinetypeTableRecord
  2
DOT
 70
     0
  3
Dot . . . . . . . . . . . . . . . . . . . . . .
 72
    65
 73
     2
 40
0.25
 49
0.0
 74
     0
 49
-0.25
 74
     0
  0
LTYPE
  5
5F
330
5
100
AcDbSymbolTableRecord
100
AcDbLinetypeTableRecord
  2
DOT2
 70
     0
  3
Dot (.5x) .....................................
 72
    65
 73
     2
 40
0.125
 49
0.0
 74
     0
 49
-0.125
 74
     0
  0
LTYPE
  5
60
330
5
100
AcDbSymbolTableRecord
100
AcDbLinetypeTableRecord
  2
DOTX2
 70
     0
  3
Dot (2x) .  .  .  .  .  .  .  .  .  .  .  .  . 
 72
    65
 73
     2
 40
0.5
 49
0.0
 74
     0
 49
-0.5
 74
     0
  0
LTYPE
  5
61
330
5
100
AcDbSymbolTableRecord
100
AcDbLinetypeTableRecord
  2
HIDDEN
 70
     0
  3
Hidden __ __ __ __ __ __ __ __ __ __ __ __ __ _
 72
    65
 73
     2
 40
0.375
 49
0.25
 74
     0
 49
-0.125
 74
     0
  0
LTYPE
  5
62
330
5
100
AcDbSymbolTableRecord
100
AcDbLinetypeTableRecord
  2
HIDDEN2
 70
     0
  3
Hidden (.5x) _ _ _ _ _ _ _ _ _ _ _ _ _ _ _ _ _
 72
    65
 73
     2
 40
0.1875
 49
0.125
 74
     0
 49
-0.0625
 74
     0
  0
LTYPE
  5
63
330
5
100
AcDbSymbolTableRecord
100
AcDbLinetypeTableRecord
  2
HIDDENX2
 70
     0
  3
Hidden (2x) ____ ____ ____ ____ ____ ____ ____
 72
    65
 73
     2
 40
0.75
 49
0.5
 74
     0
 49
-0.25
 74
     0
  0
LTYPE
  5
64
330
5
100
AcDbSymbolTableRecord
100
AcDbLinetypeTableRecord
  2
PHANTOM
 70
     0
  3
Phantom ______  __  __  ______  __  __  ______
 72
    65
 73
     6
 40
2.5
 49
1.25
 74
     0
 49
-0.25
 74
     0
 49
0.25
 74
     0
 49
-0.25
 74
     0
 49
0.25
 74
     0
 49
-0.25
 74
     0
  0
LTYPE
  5
65
330
5
100
AcDbSymbolTableRecord
100
AcDbLinetypeTableRecord
  2
PHANTOM2
 70
     0
  3
Phantom (.5x) ___ _ _ ___ _ _ ___ _ _ ___ _ _
 72
    65
 73
     6
 40
1.25
 49
0.625
 74
     0
 49
-0.125
 74
     0
 49
0.125
 74
     0
 49
-0.125
 74
     0
 49
0.125
 74
     0
 49
-0.125
 74
     0
  0
LTYPE
  5
66
330
5
100
AcDbSymbolTableRecord
100
AcDbLinetypeTableRecord
  2
PHANTOMX2
 70
     0
  3
Phantom (2x) ____________    ____    ____   _
 72
    65
 73
     6
 40
5.0
 49
2.5
 74
     0
 49
-0.5
 74
     0
 49
0.5
 74
     0
 49
-0.5
 74
     0
 49
0.5
 74
     0
 49
-0.5
 74
     0
  0
LTYPE
  5
67
330
5
100
AcDbSymbolTableRecord
100
AcDbLinetypeTableRecord
  2
ACAD_ISO02W100
 70
     0
  3
ISO dash __ __ __ __ __ __ __ __ __ __ __ __ __
 72
    65
 73
     2
 40
0.59
 49
0.47
 74
     0
 49
-0.12
 74
     0
  0
LTYPE
  5
68
330
5
100
AcDbSymbolTableRecord
100
AcDbLinetypeTableRecord
  2
ACAD_ISO03W100
 70
     0
  3
ISO dash space __    __    __    __    __    __
 72
    65
 73
     2
 40
1.179999999999999
 49
0.47
 74
     0
 49
-0.71
 74
     0
  0
LTYPE
  5
69
330
5
100
AcDbSymbolTableRecord
100
AcDbLinetypeTableRecord
  2
ACAD_ISO04W100
 70
     0
  3
ISO long-dash dot ____ . ____ . ____ . ____ . _
 72
    65
 73
     4
 40
1.179999999999999
 49
0.9399999999999998
 74
     0
 49
-0.12
 74
     0
 49
0.0
 74
     0
 49
-0.12
 74
     0
  0
LTYPE
  5
6A
330
5
100
AcDbSymbolTableRecord
100
AcDbLinetypeTableRecord
  2
ACAD_ISO05W100
 70
     0
  3
ISO long-dash double-dot ____ .. ____ .. ____ .
 72
    65
 73
     6
 40
1.299999999999999
 49
0.9399999999999998
 74
     0
 49
-0.12
 74
     0
 49
0.0
 74
     0
 49
-0.12
 74
     0
 49
0.0
 74
     0
 49
-0.12
 74
     0
  0
LTYPE
  5
6B
330
5
100
AcDbSymbolTableRecord
100
AcDbLinetypeTableRecord
  2
ACAD_ISO06W100
 70
     0
  3
ISO long-dash triple-dot ____ ... ____ ... ____
 72
    65
 73
     8
 40
1.419999999999999
 49
0.9399999999999998
 74
     0
 49
-0.12
 74
     0
 49
0.0
 74
     0
 49
-0.12
 74
     0
 49
0.0
 74
     0
 49
-0.12
 74
     0
 49
0.0
 74
     0
 49
-0.12
 74
     0
  0
LTYPE
  5
6C
330
5
100
AcDbSymbolTableRecord
100
AcDbLinetypeTableRecord
  2
ACAD_ISO07W100
 70
     0
  3
ISO dot . . . . . . . . . . . . . . . . . . . .
 72
    65
 73
     2
 40
0.12
 49
0.0
 74
     0
 49
-0.12
 74
     0
  0
LTYPE
  5
6D
330
5
100
AcDbSymbolTableRecord
100
AcDbLinetypeTableRecord
  2
ACAD_ISO08W100
 70
     0
  3
ISO long-dash short-dash ____ __ ____ __ ____ _
 72
    65
 73
     4
 40
0.95
 49
0.47
 74
     0
 49
-0.12
 74
     0
 49
0.24
 74
     0
 49
-0.12
 74
     0
  0
LTYPE
  5
6E
330
5
100
AcDbSymbolTableRecord
100
AcDbLinetypeTableRecord
  2
ACAD_ISO09W100
 70
     0
  3
ISO long-dash double-short-dash ____ __ __ ____
 72
    65
 73
     6
 40
1.31
 49
0.47
 74
     0
 49
-0.12
 74
     0
 49
0.24
 74
     0
 49
-0.12
 74
     0
 49
0.24
 74
     0
 49
-0.12
 74
     0
  0
LTYPE
  5
6F
330
5
100
AcDbSymbolTableRecord
100
AcDbLinetypeTableRecord
  2
ACAD_ISO10W100
 70
     0
  3
ISO dash dot __ . __ . __ . __ . __ . __ . __ .
 72
    65
 73
     4
 40
0.71
 49
0.47
 74
     0
 49
-0.12
 74
     0
 49
0.0
 74
     0
 49
-0.12
 74
     0
  0
LTYPE
  5
70
330
5
100
AcDbSymbolTableRecord
100
AcDbLinetypeTableRecord
  2
ACAD_ISO11W100
 70
     0
  3
ISO double-dash dot __ __ . __ __ . __ __ . __ 
 72
    65
 73
     6
 40
1.299999999999999
 49
0.47
 74
     0
 49
-0.12
 74
     0
 49
0.47
 74
     0
 49
-0.12
 74
     0
 49
0.0
 74
     0
 49
-0.12
 74
     0
  0
LTYPE
  5
71
330
5
100
AcDbSymbolTableRecord
100
AcDbLinetypeTableRecord
  2
ACAD_ISO12W100
 70
     0
  3
ISO dash double-dot __ . . __ . . __ . . __ . .
 72
    65
 73
     6
 40
0.8299999999999998
 49
0.47
 74
     0
 49
-0.12
 74
     0
 49
0.0
 74
     0
 49
-0.12
 74
     0
 49
0.0
 74
     0
 49
-0.12
 74
     0
  0
LTYPE
  5
72
330
5
100
AcDbSymbolTableRecord
100
AcDbLinetypeTableRecord
  2
ACAD_ISO13W100
 70
     0
  3
ISO double-dash double-dot __ __ . . __ __ . . 
 72
    65
 73
     8
 40
1.419999999999999
 49
0.47
 74
     0
 49
-0.12
 74
     0
 49
0.47
 74
     0
 49
-0.12
 74
     0
 49
0.0
 74
     0
 49
-0.12
 74
     0
 49
0.0
 74
     0
 49
-0.12
 74
     0
  0
LTYPE
  5
73
330
5
100
AcDbSymbolTableRecord
100
AcDbLinetypeTableRecord
  2
ACAD_ISO14W100
 70
     0
  3
ISO dash triple-dot __ . . . __ . . . __ . . . 
 72
    65
 73
     8
 40
0.95
 49
0.47
 74
     0
 49
-0.12
 74
     0
 49
0.0
 74
     0
 49
-0.12
 74
     0
 49
0.0
 74
     0
 49
-0.12
 74
     0
 49
0.0
 74
     0
 49
-0.12
 74
     0
  0
LTYPE
  5
74
330
5
100
AcDbSymbolTableRecord
100
AcDbLinetypeTableRecord
  2
ACAD_ISO15W100
 70
     0
  3
ISO double-dash triple-dot __ __ . . . __ __ . 
 72
    65
 73
    10
 40
1.539999999999999
 49
0.47
 74
     0
 49
-0.12
 74
     0
 49
0.47
 74
     0
 49
-0.12
 74
     0
 49
0.0
 74
     0
 49
-0.12
 74
     0
 49
0.0
 74
     0
 49
-0.12
 74
     0
 49
0.0
 74
     0
 49
-0.12
 74
     0
  0
LTYPE
  5
77
330
5
100
AcDbSymbolTableRecord
100
AcDbLinetypeTableRecord
  2
FENCELINE1
 70
     0
  3
Fenceline circle ----0-----0----0-----0----0---
 72
    65
 73
     4
 40
1.45
 49
0.25
 74
     0
 49
-0.1
 74
     4
 75
   133
340
76
 46
0.1
 50
0.0
 44
-0.1
 45
0.0
 49
-0.1
 74
     0
 49
1.0
 74
     0
  0
LTYPE
  5
78
330
5
100
AcDbSymbolTableRecord
100
AcDbLinetypeTableRecord
  2
FENCELINE2
 70
     0
  3
Fenceline square ----[]-----[]----[]-----[]----
 72
    65
 73
     4
 40
1.45
 49
0.25
 74
     0
 49
-0.1
 74
     4
 75
   132
340
76
 46
0.1
 50
0.0
 44
-0.1
 45
0.0
 49
-0.1
 74
     0
 49
1.0
 74
     0
  0
LTYPE
  5
79
330
5
100
AcDbSymbolTableRecord
100
AcDbLinetypeTableRecord
  2
TRACKS
 70
     0
  3
Tracks -|-|-|-|-|-|-|-|-|-|-|-|-|-|-|-|-|-|-|-|
 72
    65
 73
     2
 40
0.3
 49
0.15
 74
     4
 75
   130
340
76
 46
0.25
 50
0.0
 44
0.0
 45
0.0
 49
0.15
 74
     0
  0
LTYPE
  5
7A
330
5
100
AcDbSymbolTableRecord
100
AcDbLinetypeTableRecord
  2
BATTING
 70
     0
  3
Batting SSSSSSSSSSSSSSSSSSSSSSSSSSSSSSSSSSSSSSS
 72
    65
 73
     4
 40
0.4001000000000001
 49
0.0001
 74
     0
 49
-0.1
 74
     4
 75
   134
340
76
 46
0.1
 50
0.0
 44
-0.1
 45
0.0
 49
-0.2
 74
     4
 75
   134
340
76
 46
0.1
 50
180.0
 44
0.1
 45
0.0
 49
-0.1
 74
     0
  0
LTYPE
  5
7B
330
5
100
AcDbSymbolTableRecord
100
AcDbLinetypeTableRecord
  2
HOT_WATER_SUPPLY
 70
     0
  3
Hot water supply ---- HW ---- HW ---- HW ----
 72
    65
 73
     3
 40
0.9
 49
0.5
 74
     0
 49
-0.2
 74
     2
 75
     0
340
26
 46
0.1
 50
0.0
 44
-0.1
 45
-0.05
  9
HW
 49
-0.2
 74
     0
  0
LTYPE
  5
7C
330
5
100
AcDbSymbolTableRecord
100
AcDbLinetypeTableRecord
  2
GAS_LINE
 70
     0
  3
Gas line ----GAS----GAS----GAS----GAS----GAS---
 72
    65
 73
     3
 40
0.95
 49
0.5
 74
     0
 49
-0.2
 74
     2
 75
     0
340
26
 46
0.1
 50
0.0
 44
-0.1
 45
-0.05
  9
GAS
 49
-0.25
 74
     0
  0
LTYPE
  5
7D
330
5
100
AcDbSymbolTableRecord
100
AcDbLinetypeTableRecord
  2
ZIGZAG
 70
     0
  3
Zig zag /\/\/\/\/\/\/\/\/\/\/\/\/\/\/\/\/\/\/\/
 72
    65
 73
     4
 40
0.8001000000000001
 49
0.0001
 74
     0
 49
-0.2
 74
     4
 75
   131
340
76
 46
0.2
 50
0.0
 44
-0.2
 45
0.0
 49
-0.4
 74
     4
 75
   131
340
76
 46
0.2
 50
180.0
 44
0.2
 45
0.0
 49
-0.2
 74
     0
  0
ENDTAB
  0
TABLE
  2
LAYER
  5
2
330
0
100
AcDbSymbolTable
 70
    74
  0
LAYER
  5
25
330
2
100
AcDbSymbolTableRecord
100
AcDbLayerTableRecord
  2
0
 70
     0
 62
     7
  6
Continuous
370
    -3
390
F
  0
LAYER
  5
92
330
2
100
AcDbSymbolTableRecord
100
AcDbLayerTableRecord
  2
Bemaßungen(TC_020513_DIN)
 70
     0
 62
     7
  6
Continuous
370
    25
390
F
  0
LAYER
  5
AF
330
2
100
AcDbSymbolTableRecord
100
AcDbLayerTableRecord
  2
Schraffur
 70
     0
 62
   179
  6
Continuous
370
     9
390
F
  0
LAYER
  5
B1
330
2
100
AcDbSymbolTableRecord
100
AcDbLayerTableRecord
  2
Sichtbare Kanten(TC_020513_DIN)
 70
     0
 62
     7
  6
Continuous
370
    50
390
F
  0
LAYER
  5
B4
330
2
100
AcDbSymbolTableRecord
100
AcDbLayerTableRecord
  2
Skizziergeometrie(ISO)
 70
     0
 62
     7
  6
Continuous
370
    50
390
F
  0
LAYER
  5
B7
330
2
100
AcDbSymbolTableRecord
100
AcDbLayerTableRecord
  2
Skizzierlinie(TC_020513_DIN)
 70
     1
 62
     3
  6
Continuous
370
    18
390
F
  0
LAYER
  5
B9
330
2
100
AcDbSymbolTableRecord
100
AcDbLayerTableRecord
  2
Stich 1-Linien(TC_020513_DIN)
 70
     0
 62
     7
  6
DASHED_SPACE
370
    25
390
F
  0
LAYER
  5
BC
330
2
100
AcDbSymbolTableRecord
100
AcDbLayerTableRecord
  2
Symbole(ISO)
 70
     0
 62
     7
  6
Continuous
370
    25
390
F
  0
LAYER
  5
6AD
330
2
100
AcDbSymbolTableRecord
100
AcDbLayerTableRecord
  2
Defpoints
 70
     0
 62
     7
  6
Continuous
290
     0
370
    -3
390
F
  0
ENDTAB
  0
TABLE
  2
STYLE
  5
3
330
0
100
AcDbSymbolTable
 70
    17
  0
STYLE
  5
26
330
3
100
AcDbSymbolTableRecord
100
AcDbTextStyleTableRecord
  2
Standard
 70
     0
 40
0.0
 41
1.0
 50
0.0
 71
     0
 42
0.2
  3
ARIAL.TTF
  4

1001
ACAD
1000
Arial
1071
      256
  0
STYLE
  5
76
330
3
100
AcDbSymbolTableRecord
100
AcDbTextStyleTableRecord
  2

 70
     1
 40
0.0
 41
1.0
 50
0.0
 71
     0
 42
0.2
  3
ltypeshp.shx
  4

  0
STYLE
  5
C6
330
3
100
AcDbSymbolTableRecord
100
AcDbTextStyleTableRecord
  2
Aktuell-BSI
 70
     0
 40
0.0
 41
1.0
 50
0.0
 71
     0
 42
0.2
  3
ARIAL.TTF
  4

1001
ACAD
1000
Arial
1071
      256
  0
STYLE
  5
C7
330
3
100
AcDbSymbolTableRecord
100
AcDbTextStyleTableRecord
  2
Kopie von TC 5 mm
 70
     0
 40
0.0
 41
1.199999928474426
 50
0.0
 71
     0
 42
0.2
  3
ARIAL.TTF
  4

1001
ACAD
1000
Arial
1071
      256
  0
STYLE
  5
C8
330
3
100
AcDbSymbolTableRecord
100
AcDbTextStyleTableRecord
  2
STANDARD-TC_020513_DIN
 70
     0
 40
0.0
 41
1.0
 50
0.0
 71
     0
 42
0.2
  3
ARIAL.TTF
  4

1001
ACAD
1000
Arial
1071
      256
  0
STYLE
  5
C9
330
3
100
AcDbSymbolTableRecord
100
AcDbTextStyleTableRecord
  2
STANDARD-TC_020513_DINGroßer Text
 70
     0
 40
0.0
 41
1.0
 50
0.0
 71
     0
 42
0.2
  3
ARIAL.TTF
  4

1001
ACAD
1000
Arial
1071
      256
  0
STYLE
  5
CA
330
3
100
AcDbSymbolTableRecord
100
AcDbTextStyleTableRecord
  2
STANDARD-TC_020513_DINNach Layer
 70
     0
 40
0.0
 41
1.0
 50
0.0
 71
     0
 42
0.2
  3
ARIAL.TTF
  4

1001
ACAD
1000
Arial
1071
      256
  0
STYLE
  5
CB
330
3
100
AcDbSymbolTableRecord
100
AcDbTextStyleTableRecord
  2
TC 2_5 mm
 70
     0
 40
0.0
 41
0.899999976158142
 50
0.0
 71
     0
 42
0.2
  3
ARIAL.TTF
  4

1001
ACAD
1000
Arial
1071
      256
  0
STYLE
  5
CC
330
3
100
AcDbSymbolTableRecord
100
AcDbTextStyleTableRecord
  2
TC 3_5 mm
 70
     0
 40
0.0
 41
0.7999999523162842
 50
0.0
 71
     0
 42
0.2
  3
ARIAL.TTF
  4

1001
ACAD
1000
Arial
1071
      256
  0
STYLE
  5
CD
330
3
100
AcDbSymbolTableRecord
100
AcDbTextStyleTableRecord
  2
TC 3_5 mmGroßer Text
 70
     0
 40
0.0
 41
0.899999976158142
 50
0.0
 71
     0
 42
0.2
  3
ARIAL.TTF
  4

1001
ACAD
1000
Arial
1071
      256
  0
STYLE
  5
CE
330
3
100
AcDbSymbolTableRecord
100
AcDbTextStyleTableRecord
  2
TC 3_5 mmNach Layer
 70
     0
 40
0.0
 41
0.899999976158142
 50
0.0
 71
     0
 42
0.2
  3
ARIAL.TTF
  4

1001
ACAD
1000
Arial
1071
      256
  0
STYLE
  5
CF
330
3
100
AcDbSymbolTableRecord
100
AcDbTextStyleTableRecord
  2
TC 4 mm
 70
     0
 40
0.0
 41
1.199999928474426
 50
0.0
 71
     0
 42
0.2
  3
ARIAL.TTF
  4

1001
ACAD
1000
Arial
1071
      256
  0
STYLE
  5
D0
330
3
100
AcDbSymbolTableRecord
100
AcDbTextStyleTableRecord
  2
TC 5 mm
 70
     0
 40
0.0
 41
0.899999976158142
 50
0.0
 71
     0
 42
0.2
  3
ARIAL.TTF
  4

1001
ACAD
1000
Arial
1071
      256
  0
STYLE
  5
D1
330
3
100
AcDbSymbolTableRecord
100
AcDbTextStyleTableRecord
  2
TC 5 mmNach Layer
 70
     0
 40
0.0
 41
0.899999976158142
 50
0.0
 71
     0
 42
0.2
  3
ARIAL.TTF
  4

1001
ACAD
1000
Arial
1071
      256
  0
STYLE
  5
D2
330
3
100
AcDbSymbolTableRecord
100
AcDbTextStyleTableRecord
  2
TC 7 mm
 70
     0
 40
0.0
 41
0.899999976158142
 50
0.0
 71
     0
 42
0.2
  3
ARIAL.TTF
  4

1001
ACAD
1000
Arial
1071
      256
  0
STYLE
  5
E2
330
3
100
AcDbSymbolTableRecord
100
AcDbTextStyleTableRecord
  2
TC 2_5 mm-ISOCPEUR
 70
     0
 40
0.0
 41
0.899999976158142
 50
0.0
 71
     0
 42
0.2
  3
isocpeur.ttf
  4

1001
ACAD
1000
ISOCPEUR
1071
      256
  0
STYLE
  5
E6
330
3
100
AcDbSymbolTableRecord
100
AcDbTextStyleTableRecord
  2
TC 3_5 mm-ISOCPEUR
 70
     0
 40
0.0
 41
0.899999976158142
 50
0.0
 71
     0
 42
0.2
  3
isocpeur.ttf
  4

1001
ACAD
1000
ISOCPEUR
1071
      256
  0
ENDTAB
  0
TABLE
  2
VIEW
  5
6
330
0
100
AcDbSymbolTable
 70
     0
  0
ENDTAB
  0
TABLE
  2
UCS
  5
7
330
0
100
AcDbSymbolTable
 70
     0
  0
ENDTAB
  0
TABLE
  2
APPID
  5
9
330
0
100
AcDbSymbolTable
 70
     1
  0
APPID
  5
27
330
9
100
AcDbSymbolTableRecord
100
AcDbRegAppTableRecord
  2
ACAD
 70
     0
  0
ENDTAB
  0
TABLE
  2
DIMSTYLE
  5
A
330
0
100
AcDbSymbolTable
 70
     9
100
AcDbDimStyleTable
 71
     2
340
D3
340
3F
  0
DIMSTYLE
105
3F
330
A
100
AcDbSymbolTableRecord
100
AcDbDimStyleTableRecord
  2
Standard
 70
     0
340
26
  0
DIMSTYLE
105
D3
102
{ACAD_REACTORS
330
6AC
330
772
330
832
330
8F2
330
9B2
330
A77
102
}
330
A
100
AcDbSymbolTableRecord
100
AcDbDimStyleTableRecord
  2
STANDARD-TC_020513_DIN
 70
     0
 41
2.5
 42
1.0
 43
6.0
 44
2.0
 45
0.00000001
 46
10.0
 73
     0
 74
     0
 77
     1
 78
    12
 79
     3
140
3.5
143
0.03937
147
0.8
171
     3
172
     1
176
     7
177
     7
178
     7
271
     2
272
     2
274
     3
278
    44
340
C6
371
    25
372
    25
  0
DIMSTYLE
105
D4
330
A
100
AcDbSymbolTableRecord
100
AcDbDimStyleTableRecord
  2
STANDARD-TC_020513_DIN$7
 70
     0
 41
2.5
 42
1.0
 43
6.0
 44
2.0
 45
0.00000001
 46
10.0
 73
     0
 74
     0
 77
     1
 78
    12
 79
     3
140
3.5
143
0.03937
147
0.8
171
     3
172
     1
176
     7
177
     7
178
     7
271
     2
272
     2
274
     3
278
    44
340
C6
371
    25
372
    25
  0
DIMSTYLE
105
D5
330
A
100
AcDbSymbolTableRecord
100
AcDbDimStyleTableRecord
  2
STANDARD-TC_020513_DINGroßer Text
 70
     0
 41
5.0
 42
0.0
 43
6.0
 44
3.174999999999999
 45
0.00000001
 46
10.0
 73
     0
 74
     0
 77
     1
140
5.25
143
0.03937
146
0.6666666666666666
147
0.8
171
     3
172
     1
176
     7
177
     7
178
     7
271
     2
272
     2
274
     3
278
    44
340
C9
371
    25
372
    25
  0
DIMSTYLE
105
D6
330
A
100
AcDbSymbolTableRecord
100
AcDbDimStyleTableRecord
  2
STANDARD-TC_020513_DINGroßer Text$7
 70
     0
 41
5.0
 42
0.0
 43
6.0
 44
3.174999999999999
 45
0.00000001
 46
10.0
 73
     0
 74
     0
 77
     1
140
5.25
143
0.03937
146
0.6666666666666666
147
0.8
171
     3
172
     1
176
     7
177
     7
178
     7
271
     2
272
     2
274
     3
278
    44
340
C9
371
    25
372
    25
  0
DIMSTYLE
105
D7
330
A
100
AcDbSymbolTableRecord
100
AcDbDimStyleTableRecord
  2
Teccon Kiel Stil
 70
     0
 41
2.5
 42
0.0
 43
7.0
 44
2.0
 45
0.00000001
 46
10.0
 73
     0
 74
     0
 77
     1
 78
    12
 79
     3
140
3.5
143
0.03937
147
1.0
171
     3
172
     1
176
     7
177
     7
178
     7
179
     1
271
     1
272
     2
274
     3
278
    44
340
CC
371
    25
372
    25
  0
DIMSTYLE
105
D8
330
A
100
AcDbSymbolTableRecord
100
AcDbDimStyleTableRecord
  2
Teccon Kiel Stil$7
 70
     0
 41
2.5
 42
0.0
 43
7.0
 44
2.0
 45
0.00000001
 46
10.0
 73
     0
 74
     0
 77
     1
 78
    12
 79
     3
140
3.5
143
0.03937
147
1.0
171
     3
172
     1
176
     7
177
     7
178
     7
179
     1
271
     1
272
     2
274
     3
278
    44
340
CC
371
    25
372
    25
  0
DIMSTYLE
105
D9
330
A
100
AcDbSymbolTableRecord
100
AcDbDimStyleTableRecord
  2
Teccon Kiel StilGroßer Text
 70
     0
 41
5.0
 42
0.0
 43
7.0
 44
2.0
 45
0.00000001
 46
10.0
 73
     0
 74
     0
 77
     1
 78
    12
 79
     3
140
5.25
143
0.03937
146
0.6666666666666666
147
1.0
171
     3
172
     1
176
     7
177
     7
178
     7
179
     1
271
     1
272
     2
274
     3
278
    44
340
CD
371
    25
372
    25
  0
DIMSTYLE
105
DA
330
A
100
AcDbSymbolTableRecord
100
AcDbDimStyleTableRecord
  2
Teccon Kiel StilGroßer Text$7
 70
     0
 41
5.0
 42
0.0
 43
7.0
 44
2.0
 45
0.00000001
 46
10.0
 73
     0
 74
     0
 77
     1
 78
    12
 79
     3
140
5.25
143
0.03937
146
0.6666666666666666
147
1.0
171
     3
172
     1
176
     7
177
     7
178
     7
179
     1
271
     1
272
     2
274
     3
278
    44
340
CD
371
    25
372
    25
  0
ENDTAB
  0
TABLE
  2
BLOCK_RECORD
  5
1
330
0
100
AcDbSymbolTable
 70
    15
  0
BLOCK_RECORD
  5
37
330
1
100
AcDbSymbolTableRecord
100
AcDbBlockTableRecord
  2
*Model_Space
340
3A
  0
BLOCK_RECORD
  5
33
330
1
100
AcDbSymbolTableRecord
100
AcDbBlockTableRecord
  2
*Paper_Space
340
36
  0
BLOCK_RECORD
  5
3B
330
1
100
AcDbSymbolTableRecord
100
AcDbBlockTableRecord
  2
*Paper_Space0
340
3E
  0
BLOCK_RECORD
  5
DB
330
1
100
AcDbSymbolTableRecord
100
AcDbBlockTableRecord
  2
DIN 6930 (Toleranzklasse)
340
0
  0
BLOCK_RECORD
  5
EC
330
1
100
AcDbSymbolTableRecord
100
AcDbBlockTableRecord
  2
nicht bemaßte Radien
340
0
  0
BLOCK_RECORD
  5
F5
330
1
100
AcDbSymbolTableRecord
100
AcDbBlockTableRecord
  2
DIN ISO 13715 (Werkstückkanten)
340
0
  0
BLOCK_RECORD
  5
119
330
1
100
AcDbSymbolTableRecord
100
AcDbBlockTableRecord
  2
EN 12329 (Chromatierung)
340
0
  0
BLOCK_RECORD
  5
121
330
1
100
AcDbSymbolTableRecord
100
AcDbBlockTableRecord
  2
ISO 2768 (zul. Abweichung)
340
0
  0
BLOCK_RECORD
  5
12A
330
1
100
AcDbSymbolTableRecord
100
AcDbBlockTableRecord
  2
DIN ISO 1302 (Oberflächen)
340
0
  0
BLOCK_RECORD
  5
132
330
1
100
AcDbSymbolTableRecord
100
AcDbBlockTableRecord
  2
Ränder Ilme Rahmen A4 quer
340
0
102
{BLKREFS
331
13C
102
}
  0
BLOCK_RECORD
  5
13D
330
1
100
AcDbSymbolTableRecord
100
AcDbBlockTableRecord
  2
Schriftfelder Ilme
340
0
102
{BLKREFS
331
1B0
102
}
  0
BLOCK_RECORD
  5
6AE
330
1
100
AcDbSymbolTableRecord
100
AcDbBlockTableRecord
  2
*D9
340
0
  0
BLOCK_RECORD
  5
773
330
1
100
AcDbSymbolTableRecord
100
AcDbBlockTableRecord
  2
*D10
340
0
  0
BLOCK_RECORD
  5
833
330
1
100
AcDbSymbolTableRecord
100
AcDbBlockTableRecord
  2
*D11
340
0
  0
BLOCK_RECORD
  5
8F3
330
1
100
AcDbSymbolTableRecord
100
AcDbBlockTableRecord
  2
*D12
340
0
  0
BLOCK_RECORD
  5
9B3
330
1
100
AcDbSymbolTableRecord
100
AcDbBlockTableRecord
  2
*D13
340
0
  0
BLOCK_RECORD
  5
A78
330
1
100
AcDbSymbolTableRecord
100
AcDbBlockTableRecord
  2
*D14
340
0
  0
ENDTAB
  0
ENDSEC
  0
SECTION
  2
BLOCKS
  0
BLOCK
  5
38
330
37
100
AcDbEntity
  8
0
100
AcDbBlockBegin
  2
*Model_Space
 70
     0
 10
0.0
 20
0.0
 30
0.0
  3
*Model_Space
  1

  0
ENDBLK
  5
39
330
37
100
AcDbEntity
  8
0
100
AcDbBlockEnd
  0
BLOCK
  5
34
330
33
100
AcDbEntity
 67
     1
  8
0
100
AcDbBlockBegin
  2
*Paper_Space
 70
     0
 10
0.0
 20
0.0
 30
0.0
  3
*Paper_Space
  1

  0
ENDBLK
  5
35
330
33
100
AcDbEntity
 67
     1
  8
0
100
AcDbBlockEnd
  0
BLOCK
  5
3C
330
3B
100
AcDbEntity
 67
     1
  8
0
100
AcDbBlockBegin
  2
*Paper_Space0
 70
     0
 10
0.0
 20
0.0
 30
0.0
  3
*Paper_Space0
  1

  0
ENDBLK
  5
3D
330
3B
100
AcDbEntity
 67
     1
  8
0
100
AcDbBlockEnd
  0
BLOCK
  5
DC
330
DB
100
AcDbEntity
  8
0
100
AcDbBlockBegin
  2
DIN 6930 (Toleranzklasse)
 70
     2
 10
0.0
 20
0.0
 30
0.0
  3
DIN 6930 (Toleranzklasse)
  1

  0
LINE
  5
DE
330
DB
100
AcDbEntity
  8
Skizziergeometrie(ISO)
100
AcDbLine
 10
-49.99999999999999
 20
24.99999999999996
 30
0.0
 11
0.0
 21
24.99999999999996
 31
0.0
  0
LINE
  5
DF
330
DB
100
AcDbEntity
  8
Skizziergeometrie(ISO)
100
AcDbLine
 10
0.0
 20
24.99999999999996
 30
0.0
 11
0.0
 21
0.0
 31
0.0
  0
LINE
  5
E0
330
DB
100
AcDbEntity
  8
Skizziergeometrie(ISO)
100
AcDbLine
 10
0.0
 20
0.0
 30
0.0
 11
-49.99999999999999
 21
0.0
 31
0.0
  0
LINE
  5
E1
330
DB
100
AcDbEntity
  8
Skizziergeometrie(ISO)
100
AcDbLine
 10
-49.99999999999999
 20
0.0
 30
0.0
 11
-49.99999999999999
 21
24.99999999999996
 31
0.0
  0
MTEXT
  5
E3
102
{ACAD_XDICTIONARY
360
B47
102
}
330
DB
100
AcDbEntity
  8
Symbole(ISO)
 62
     7
100
AcDbMText
 10
-25.01617139266887
 20
22.49496284479633
 30
0.0
 40
2.5
 41
49.93534911063455
 71
     5
 72
     1
  1
F\U+00FCr spanlose Bearbeitung
  7
TC 2_5 mm-ISOCPEUR
 73
     1
 44
1.0
1001
ACAD
1000
MTEXTBEGIN
1070
    73
1070
     1
1070
    44
1040
1.0
1070
    74
1070
     0
1000
MTEXTEND
  0
MTEXT
  5
E5
330
DB
100
AcDbEntity
  8
Symbole(ISO)
 62
     7
100
AcDbMText
 10
-24.96550299476308
 20
17.97814514565743
 30
0.0
 40
2.5
 41
49.94698265738096
 71
     5
 72
     1
  1
Allgemeintoleranz
  7
TC 2_5 mm-ISOCPEUR
 73
     1
 44
1.0
1001
ACAD
1000
MTEXTBEGIN
1070
    73
1070
     1
1070
    44
1040
1.0
1070
    74
1070
     0
1000
MTEXTEND
  0
MTEXT
  5
E7
330
DB
100
AcDbEntity
  8
Symbole(ISO)
 62
     7
100
AcDbMText
 10
-22.00032990803074
 20
12.97814514565747
 30
0.0
 40
3.499999940395355
 41
28.04641142085023
 71
     6
 72
     1
  1
DIN 6930-
  7
TC 3_5 mm-ISOCPEUR
 73
     1
 44
1.0
1001
ACAD
1000
MTEXTBEGIN
1070
    73
1070
     1
1070
    44
1040
1.0
1070
    74
1070
     0
1000
MTEXTEND
  0
MTEXT
  5
E8
330
DB
100
AcDbEntity
  8
Symbole(ISO)
 62
     7
100
AcDbMText
 10
-24.98510412015335
 20
5.018941170990345
 30
0.0
 40
2.5
 41
50.05946813167525
 71
     5
 72
     1
  1
(zul. Abweichung der\PWinkelstellung DIN 6935)
  7
TC 2_5 mm-ISOCPEUR
 73
     2
 44
1.068348169326782
1001
ACAD
1000
MTEXTBEGIN
1070
    73
1070
     2
1070
    44
1040
1.068348169326782
1070
    74
1070
     0
1000
MTEXTEND
  0
ATTDEF
  5
E9
330
DB
100
AcDbEntity
  8
Symbole(ISO)
 62
     7
100
AcDbText
 10
-21.93383492465724
 20
11.2184168455105
 30
0.0
 40
3.499999940395355
  1
 
 41
0.899999976158142
  7
TC 3_5 mm-ISOCPEUR
 11
-21.93383492465724
 21
12.96841681570818
 31
0.0
100
AcDbAttributeDefinition
  3
Toleranzklasse
  2
Toleranzklasse
 70
     0
 74
     2
  0
ENDBLK
  5
DD
330
DB
100
AcDbEntity
  8
0
100
AcDbBlockEnd
  0
BLOCK
  5
ED
330
EC
100
AcDbEntity
  8
0
100
AcDbBlockBegin
  2
nicht bemaßte Radien
 70
     2
 10
0.0
 20
0.0
 30
0.0
  3
nicht bemaßte Radien
  1

  0
LINE
  5
EF
330
EC
100
AcDbEntity
  8
Skizziergeometrie(ISO)
100
AcDbLine
 10
0.0
 20
0.0
 30
0.0
 11
-50.0
 21
0.0
 31
0.0
  0
LINE
  5
F0
330
EC
100
AcDbEntity
  8
Skizziergeometrie(ISO)
100
AcDbLine
 10
-50.0
 20
0.0
 30
0.0
 11
-50.0
 21
5.0
 31
0.0
  0
LINE
  5
F1
330
EC
100
AcDbEntity
  8
Skizziergeometrie(ISO)
100
AcDbLine
 10
-50.0
 20
5.0
 30
0.0
 11
0.0
 21
5.0
 31
0.0
  0
LINE
  5
F2
330
EC
100
AcDbEntity
  8
Skizziergeometrie(ISO)
100
AcDbLine
 10
0.0
 20
5.0
 30
0.0
 11
0.0
 21
0.0
 31
0.0
  0
MTEXT
  5
F3
102
{ACAD_XDICTIONARY
360
B49
102
}
330
EC
100
AcDbEntity
  8
Symbole(ISO)
 62
     7
100
AcDbMText
 10
-28.98102517277721
 20
2.530616500783118
 30
0.0
 40
2.5
 41
41.95492584233122
 71
     5
 72
     1
  1
Alle nicht bema\U+00DFten Radien R
  7
TC 2_5 mm-ISOCPEUR
 73
     1
 44
1.0
1001
ACAD
1000
MTEXTBEGIN
1070
    73
1070
     1
1070
    44
1040
1.0
1070
    74
1070
     0
1000
MTEXTEND
  0
ATTDEF
  5
F4
330
EC
100
AcDbEntity
  8
Symbole(ISO)
 62
     7
100
AcDbText
 10
-4.624331584212832
 20
1.293984431277515
 30
0.0
 40
2.5
  1
 
 41
0.899999976158142
  7
TC 2_5 mm-ISOCPEUR
 72
     1
 11
-3.949331602094225
 21
2.543984431277515
 31
0.0
100
AcDbAttributeDefinition
  3
Radius
  2
Radius
 70
     0
 74
     2
  0
ENDBLK
  5
EE
330
EC
100
AcDbEntity
  8
0
100
AcDbBlockEnd
  0
BLOCK
  5
F6
330
F5
100
AcDbEntity
  8
0
100
AcDbBlockBegin
  2
DIN ISO 13715 (Werkstückkanten)
 70
     2
 10
0.0
 20
0.0
 30
0.0
  3
DIN ISO 13715 (Werkstückkanten)
  1

  0
LINE
  5
F8
102
{ACAD_REACTORS
330
FB
102
}
330
F5
100
AcDbEntity
  8
0
100
AcDbLine
 10
-35.0
 20
20.0
 30
0.0
 11
-32.75944236602587
 21
21.71924034067061
 31
0.0
  0
LINE
  5
F9
102
{ACAD_REACTORS
330
FB
102
}
330
F5
100
AcDbEntity
  8
0
100
AcDbLine
 10
-33.28075965932943
 20
22.24055763397416
 30
0.0
 11
-35.0
 21
20.0
 31
0.0
  0
LINE
  5
FA
102
{ACAD_REACTORS
330
FB
102
}
330
F5
100
AcDbEntity
  8
0
100
AcDbLine
 10
-32.75944236602587
 20
21.71924034067061
 30
0.0
 11
-33.28075965932943
 21
22.24055763397416
 31
0.0
  0
HATCH
  5
FB
330
F5
100
AcDbEntity
  8
Schraffur
 62
     7
100
AcDbHatch
 10
0.0
 20
0.0
 30
0.0
210
0.0
220
0.0
230
1.0
  2
SOLID
 70
     1
 71
     1
 91
        1
 92
        1
 93
        3
 72
     1
 10
-35.0
 20
20.0
 11
-32.75944236602587
 21
21.71924034067061
 72
     1
 10
-32.75944236602587
 20
21.71924034067061
 11
-33.28075965932943
 21
22.24055763397416
 72
     1
 10
-33.28075965932943
 20
22.24055763397416
 11
-35.0
 21
20.0
 97
        3
330
F8
330
FA
330
F9
 75
     0
 76
     1
 98
        1
 10
0.0
 20
0.0
  0
LINE
  5
FC
102
{ACAD_REACTORS
330
FF
102
}
330
F5
100
AcDbEntity
  8
0
100
AcDbLine
 10
-20.00000000000003
 20
20.00000000000003
 30
0.0
 11
-17.7594423660259
 21
21.71924034067057
 31
0.0
  0
LINE
  5
FD
102
{ACAD_REACTORS
330
FF
102
}
330
F5
100
AcDbEntity
  8
0
100
AcDbLine
 10
-18.28075965932939
 20
22.24055763397406
 30
0.0
 11
-20.00000000000003
 21
20.00000000000003
 31
0.0
  0
LINE
  5
FE
102
{ACAD_REACTORS
330
FF
102
}
330
F5
100
AcDbEntity
  8
0
100
AcDbLine
 10
-17.7594423660259
 20
21.71924034067057
 30
0.0
 11
-18.28075965932939
 21
22.24055763397406
 31
0.0
  0
HATCH
  5
FF
330
F5
100
AcDbEntity
  8
Schraffur
 62
     7
100
AcDbHatch
 10
0.0
 20
0.0
 30
0.0
210
0.0
220
0.0
230
1.0
  2
SOLID
 70
     1
 71
     1
 91
        1
 92
        1
 93
        3
 72
     1
 10
-20.00000000000003
 20
20.00000000000003
 11
-17.7594423660259
 21
21.71924034067057
 72
     1
 10
-17.7594423660259
 20
21.71924034067057
 11
-18.28075965932939
 21
22.24055763397406
 72
     1
 10
-18.28075965932939
 20
22.24055763397406
 11
-20.00000000000003
 21
20.00000000000003
 97
        3
330
FC
330
FE
330
FD
 75
     0
 76
     1
 98
        1
 10
0.0
 20
0.0
  0
LINE
  5
100
330
F5
100
AcDbEntity
  8
Skizziergeometrie(ISO)
100
AcDbLine
 10
-39.89999999999998
 20
20.0
 30
0.0
 11
-35.0
 21
20.0
 31
0.0
  0
LINE
  5
101
330
F5
100
AcDbEntity
  8
Skizziergeometrie(ISO)
100
AcDbLine
 10
-35.0
 20
20.0
 30
0.0
 11
-34.99999999999996
 21
15.09999999999998
 31
0.0
  0
LINE
  5
102
330
F5
100
AcDbEntity
  8
Skizziergeometrie(ISO)
100
AcDbLine
 10
-20.00000000000003
 20
20.00000000000003
 30
0.0
 11
-15.10000000000005
 21
20.00000000000003
 31
0.0
  0
LINE
  5
103
330
F5
100
AcDbEntity
  8
Skizziergeometrie(ISO)
100
AcDbLine
 10
-20.00000000000003
 20
20.00000000000003
 30
0.0
 11
-20.00000000000003
 21
24.90000000000002
 31
0.0
  0
LINE
  5
104
330
F5
100
AcDbEntity
  8
Skizziergeometrie(ISO)
100
AcDbLine
 10
-35.0
 20
20.0
 30
0.0
 11
-31.28768939877062
 21
23.71231060122938
 31
0.0
  0
LINE
  5
105
330
F5
100
AcDbEntity
  8
Skizziergeometrie(ISO)
100
AcDbLine
 10
-31.28768939877062
 20
23.71231060122938
 30
0.0
 11
-26.3876893987706
 21
23.71231060122938
 31
0.0
  0
LINE
  5
106
330
F5
100
AcDbEntity
  8
Skizziergeometrie(ISO)
100
AcDbLine
 10
-35.0
 20
20.0
 30
0.0
 11
-33.28075965932943
 21
22.24055763397416
 31
0.0
  0
LINE
  5
107
330
F5
100
AcDbEntity
  8
Skizziergeometrie(ISO)
100
AcDbLine
 10
-33.28075965932943
 20
22.24055763397416
 30
0.0
 11
-32.75944236602587
 21
21.71924034067061
 31
0.0
  0
LINE
  5
108
330
F5
100
AcDbEntity
  8
Skizziergeometrie(ISO)
100
AcDbLine
 10
-32.75944236602587
 20
21.71924034067061
 30
0.0
 11
-35.0
 21
20.0
 31
0.0
  0
LINE
  5
109
330
F5
100
AcDbEntity
  8
Skizziergeometrie(ISO)
100
AcDbLine
 10
-31.28768939877062
 20
23.71231060122938
 30
0.0
 11
-31.28768939877062
 21
28.61231060122936
 31
0.0
  0
LINE
  5
10A
330
F5
100
AcDbEntity
  8
Skizziergeometrie(ISO)
100
AcDbLine
 10
-18.02010101267761
 20
21.97989898732235
 30
0.0
 11
-16.28768939877059
 21
23.71231060122938
 31
0.0
  0
LINE
  5
10B
330
F5
100
AcDbEntity
  8
Skizziergeometrie(ISO)
100
AcDbLine
 10
-16.28768939877059
 20
23.71231060122938
 30
0.0
 11
-11.3876893987706
 21
23.71231060122938
 31
0.0
  0
LINE
  5
10C
330
F5
100
AcDbEntity
  8
Skizziergeometrie(ISO)
100
AcDbLine
 10
-20.00000000000003
 20
20.00000000000003
 30
0.0
 11
-18.28075965932939
 21
22.24055763397406
 31
0.0
  0
LINE
  5
10D
330
F5
100
AcDbEntity
  8
Skizziergeometrie(ISO)
100
AcDbLine
 10
-18.28075965932939
 20
22.24055763397406
 30
0.0
 11
-17.7594423660259
 21
21.71924034067057
 31
0.0
  0
LINE
  5
10E
330
F5
100
AcDbEntity
  8
Skizziergeometrie(ISO)
100
AcDbLine
 10
-17.7594423660259
 20
21.71924034067057
 30
0.0
 11
-20.00000000000003
 21
20.00000000000003
 31
0.0
  0
LINE
  5
10F
330
F5
100
AcDbEntity
  8
Skizziergeometrie(ISO)
100
AcDbLine
 10
-16.28768939877059
 20
23.71231060122938
 30
0.0
 11
-16.28768939877059
 21
28.61231060122936
 31
0.0
  0
LINE
  5
110
330
F5
100
AcDbEntity
  8
Skizziergeometrie(ISO)
100
AcDbLine
 10
-49.99999999999999
 20
35.0
 30
0.0
 11
0.0
 21
35.0
 31
0.0
  0
LINE
  5
111
330
F5
100
AcDbEntity
  8
Skizziergeometrie(ISO)
100
AcDbLine
 10
0.0
 20
35.0
 30
0.0
 11
0.0
 21
0.0
 31
0.0
  0
LINE
  5
112
330
F5
100
AcDbEntity
  8
Skizziergeometrie(ISO)
100
AcDbLine
 10
0.0
 20
0.0
 30
0.0
 11
-49.99999999999999
 21
0.0
 31
0.0
  0
LINE
  5
113
330
F5
100
AcDbEntity
  8
Skizziergeometrie(ISO)
100
AcDbLine
 10
-49.99999999999999
 20
0.0
 30
0.0
 11
-49.99999999999999
 21
35.0
 31
0.0
  0
MTEXT
  5
114
102
{ACAD_XDICTIONARY
360
B4B
102
}
330
F5
100
AcDbEntity
  8
Symbole(ISO)
 62
     7
100
AcDbMText
 10
-24.97893135154584
 20
10.23779293592927
 30
0.0
 40
3.499999940395355
 41
49.9873458157533
 71
     5
 72
     1
  1
Werkst\U+00FCckkanten\Pnach ISO 13715
  7
TC 3_5 mm-ISOCPEUR
 73
     2
 44
1.068348169326782
1001
ACAD
1000
MTEXTBEGIN
1070
    73
1070
     2
1070
    44
1040
1.068348169326782
1070
    74
1070
     0
1000
MTEXTEND
  0
ATTDEF
  5
115
330
F5
100
AcDbEntity
  8
Symbole(ISO)
 62
     7
100
AcDbText
 10
-30.16177492853139
 20
24.5808246293851
 30
0.0
 40
2.5
  1
 
 41
0.899999976158142
  7
TC 2_5 mm-ISOCPEUR
 11
-30.16177492853139
 21
25.8308246293851
 31
0.0
100
AcDbAttributeDefinition
  3
AK unten
  2
AK_unten
 70
     0
 74
     2
  0
ATTDEF
  5
116
330
F5
100
AcDbEntity
  8
Symbole(ISO)
 62
     7
100
AcDbText
 10
-30.17792390794348
 20
27.58528770975683
 30
0.0
 40
2.5
  1
 
 41
0.899999976158142
  7
TC 2_5 mm-ISOCPEUR
 11
-30.17792390794348
 21
28.83528770975683
 31
0.0
100
AcDbAttributeDefinition
  3
AK oben
  2
AK_oben
 70
     0
 74
     2
  0
ATTDEF
  5
117
330
F5
100
AcDbEntity
  8
Symbole(ISO)
 62
     7
100
AcDbText
 10
-15.11922386270676
 20
24.61259748150297
 30
0.0
 40
2.5
  1
 
 41
0.899999976158142
  7
TC 2_5 mm-ISOCPEUR
 11
-15.11922386270676
 21
25.86259748150297
 31
0.0
100
AcDbAttributeDefinition
  3
IK unten
  2
IK_unten
 70
     0
 74
     2
  0
ATTDEF
  5
118
330
F5
100
AcDbEntity
  8
Symbole(ISO)
 62
     7
100
AcDbText
 10
-15.14487582203273
 20
27.61806754523864
 30
0.0
 40
2.5
  1
 
 41
0.899999976158142
  7
TC 2_5 mm-ISOCPEUR
 11
-15.14487582203273
 21
28.86806754523864
 31
0.0
100
AcDbAttributeDefinition
  3
IK oben
  2
IK_oben
 70
     0
 74
     2
  0
ENDBLK
  5
F7
330
F5
100
AcDbEntity
  8
0
100
AcDbBlockEnd
  0
BLOCK
  5
11A
330
119
100
AcDbEntity
  8
0
100
AcDbBlockBegin
  2
EN 12329 (Chromatierung)
 70
     0
 10
0.0
 20
0.0
 30
0.0
  3
EN 12329 (Chromatierung)
  1

  0
LINE
  5
11C
330
119
100
AcDbEntity
  8
Skizziergeometrie(ISO)
100
AcDbLine
 10
0.0
 20
0.0
 30
0.0
 11
-50.0
 21
0.0
 31
0.0
  0
LINE
  5
11D
330
119
100
AcDbEntity
  8
Skizziergeometrie(ISO)
100
AcDbLine
 10
-50.0
 20
0.0
 30
0.0
 11
-50.0
 21
15.0
 31
0.0
  0
LINE
  5
11E
330
119
100
AcDbEntity
  8
Skizziergeometrie(ISO)
100
AcDbLine
 10
-50.0
 20
15.0
 30
0.0
 11
0.0
 21
15.00000000000003
 31
0.0
  0
LINE
  5
11F
330
119
100
AcDbEntity
  8
Skizziergeometrie(ISO)
100
AcDbLine
 10
0.0
 20
15.00000000000003
 30
0.0
 11
0.0
 21
0.0
 31
0.0
  0
MTEXT
  5
120
330
119
100
AcDbEntity
  8
Symbole(ISO)
 62
     7
100
AcDbMText
 10
-24.98833105758937
 20
7.490142772208123
 30
0.0
 40
2.5
 41
49.83545872181219
 71
     5
 72
     1
  1
Verzinkt FE / ZN / C\PEN 12329\P(gelb chromatiert)
  7
TC 2_5 mm-ISOCPEUR
 73
     2
 44
1.068348169326782
1001
ACAD
1000
MTEXTBEGIN
1070
    73
1070
     2
1070
    44
1040
1.068348169326782
1070
    74
1070
     0
1000
MTEXTEND
  0
ENDBLK
  5
11B
330
119
100
AcDbEntity
  8
0
100
AcDbBlockEnd
  0
BLOCK
  5
122
330
121
100
AcDbEntity
  8
0
100
AcDbBlockBegin
  2
ISO 2768 (zul. Abweichung)
 70
     2
 10
0.0
 20
0.0
 30
0.0
  3
ISO 2768 (zul. Abweichung)
  1

  0
LINE
  5
124
330
121
100
AcDbEntity
  8
Skizziergeometrie(ISO)
100
AcDbLine
 10
-26.0
 20
0.0
 30
0.0
 11
0.0
 21
0.0
 31
0.0
  0
LINE
  5
125
330
121
100
AcDbEntity
  8
Skizziergeometrie(ISO)
100
AcDbLine
 10
0.0
 20
0.0
 30
0.0
 11
0.0
 21
17.0
 31
0.0
  0
LINE
  5
126
330
121
100
AcDbEntity
  8
Skizziergeometrie(ISO)
100
AcDbLine
 10
0.0
 20
17.0
 30
0.0
 11
-26.0
 21
17.0
 31
0.0
  0
LINE
  5
127
330
121
100
AcDbEntity
  8
Skizziergeometrie(ISO)
100
AcDbLine
 10
-26.0
 20
17.0
 30
0.0
 11
-26.0
 21
0.0
 31
0.0
  0
MTEXT
  5
128
330
121
100
AcDbEntity
  8
Symbole(ISO)
 62
     7
100
AcDbMText
 10
-7.994454197588593
 20
5.526470854171373
 30
0.0
 40
2.5
 41
17.99309312940538
 71
     6
 72
     1
  1
ISO 2768-
  7
TC 2_5 mm-ISOCPEUR
 73
     1
 44
1.0
1001
ACAD
1000
MTEXTBEGIN
1070
    73
1070
     1
1070
    44
1040
1.0
1070
    74
1070
     0
1000
MTEXTEND
  0
ATTDEF
  5
129
330
121
100
AcDbEntity
  8
Symbole(ISO)
 62
     7
100
AcDbText
 10
-7.924832568762529
 20
4.240604076340716
 30
0.0
 40
2.5
  1
 
 41
0.899999976158142
  7
TC 2_5 mm-ISOCPEUR
 11
-7.924832568762529
 21
5.490604076340716
 31
0.0
100
AcDbAttributeDefinition
  3
Grad
  2
Grad
 70
     0
 74
     2
  0
ENDBLK
  5
123
330
121
100
AcDbEntity
  8
0
100
AcDbBlockEnd
  0
BLOCK
  5
12B
330
12A
100
AcDbEntity
  8
0
100
AcDbBlockBegin
  2
DIN ISO 1302 (Oberflächen)
 70
     0
 10
0.0
 20
0.0
 30
0.0
  3
DIN ISO 1302 (Oberflächen)
  1

  0
LINE
  5
12D
330
12A
100
AcDbEntity
  8
Skizziergeometrie(ISO)
100
AcDbLine
 10
-18.19999999999999
 20
0.0
 30
0.0
 11
0.0
 21
0.0
 31
0.0
  0
LINE
  5
12E
330
12A
100
AcDbEntity
  8
Skizziergeometrie(ISO)
100
AcDbLine
 10
0.0
 20
0.0
 30
0.0
 11
0.0
 21
17.0
 31
0.0
  0
LINE
  5
12F
330
12A
100
AcDbEntity
  8
Skizziergeometrie(ISO)
100
AcDbLine
 10
0.0
 20
17.0
 30
0.0
 11
-18.2
 21
17.0
 31
0.0
  0
LINE
  5
130
330
12A
100
AcDbEntity
  8
Skizziergeometrie(ISO)
100
AcDbLine
 10
-18.2
 20
17.0
 30
0.0
 11
-18.19999999999999
 21
0.0
 31
0.0
  0
MTEXT
  5
131
330
12A
100
AcDbEntity
  8
Symbole(ISO)
 62
     7
100
AcDbMText
 10
-9.137586403397849
 20
5.561325836084813
 30
0.0
 40
2.5
 41
18.21623868792871
 71
     5
 72
     1
  1
DIN ISO 1302
  7
TC 2_5 mm-ISOCPEUR
 73
     1
 44
1.0
1001
ACAD
1000
MTEXTBEGIN
1070
    73
1070
     1
1070
    44
1040
1.0
1070
    74
1070
     0
1000
MTEXTEND
  0
ENDBLK
  5
12C
330
12A
100
AcDbEntity
  8
0
100
AcDbBlockEnd
  0
BLOCK
  5
133
330
132
100
AcDbEntity
  8
0
100
AcDbBlockBegin
  2
Ränder Ilme Rahmen A4 quer
 70
     0
 10
0.0
 20
0.0
 30
0.0
  3
Ränder Ilme Rahmen A4 quer
  1

  0
LINE
  5
135
330
132
100
AcDbEntity
  8
Skizziergeometrie(ISO)
100
AcDbLine
 10
9.999999999999982
 20
9.999999999999952
 30
0.0
 11
10.00000000000001
 21
190.0
 31
0.0
  0
LINE
  5
136
330
132
100
AcDbEntity
  8
Skizziergeometrie(ISO)
100
AcDbLine
 10
10.00000000000001
 20
190.0
 30
0.0
 11
287.0
 21
190.0
 31
0.0
  0
LINE
  5
137
330
132
100
AcDbEntity
  8
Skizziergeometrie(ISO)
100
AcDbLine
 10
9.999999999999982
 20
9.999999999999952
 30
0.0
 11
287.0
 21
10.00000000000003
 31
0.0
  0
LINE
  5
138
330
132
100
AcDbEntity
  8
Skizziergeometrie(ISO)
100
AcDbLine
 10
148.5
 20
210.0
 30
0.0
 11
148.5
 21
196.0
 31
0.0
  0
LINE
  5
139
330
132
100
AcDbEntity
  8
Skizziergeometrie(ISO)
100
AcDbLine
 10
287.0
 20
190.0
 30
0.0
 11
287.0
 21
10.00000000000003
 31
0.0
  0
MTEXT
  5
13A
330
132
100
AcDbEntity
  8
Symbole(ISO)
 62
     7
100
AcDbMText
 10
148.5
 20
196.0
 30
0.0
 40
3.499999940395355
 41
0.0
 71
     2
 72
     1
  1
\fISOCPEUR|b0|i0;\H3.5000;    Diritti riservati     All rights reseved
  7
TC 2_5 mm
 73
     1
 44
1.0
1001
ACAD
1000
MTEXTBEGIN
1070
    73
1070
     1
1070
    44
1040
1.0
1070
    74
1070
     0
1000
MTEXTEND
  0
ENDBLK
  5
134
330
132
100
AcDbEntity
  8
0
100
AcDbBlockEnd
  0
BLOCK
  5
13E
330
13D
100
AcDbEntity
  8
0
100
AcDbBlockBegin
  2
Schriftfelder Ilme
 70
     2
 10
0.0
 20
0.0
 30
0.0
  3
Schriftfelder Ilme
  1

  0
ARC
  5
140
102
{ACAD_REACTORS
330
144
102
}
330
13D
100
AcDbEntity
  8
0
100
AcDbCircle
 10
184.655189950303
 20
19.15390948356282
 30
10.0
 40
0.3333333333333996
100
AcDbArc
 50
0.0
 51
180.0
  0
LINE
  5
141
102
{ACAD_REACTORS
330
144
102
}
330
13D
100
AcDbEntity
  8
0
100
AcDbLine
 10
184.3218566169696
 20
15.84737070168959
 30
10.0
 11
184.3218566169696
 21
19.15390948356282
 31
10.0
  0
ARC
  5
142
102
{ACAD_REACTORS
330
144
102
}
330
13D
100
AcDbEntity
  8
0
100
AcDbCircle
 10
184.655189950303
 20
15.84737070168959
 30
10.0
 40
0.3333333333333997
100
AcDbArc
 50
180.0
 51
0.0
  0
LINE
  5
143
102
{ACAD_REACTORS
330
144
102
}
330
13D
100
AcDbEntity
  8
0
100
AcDbLine
 10
184.9885232836365
 20
19.15390948356282
 30
10.0
 11
184.9885232836365
 21
15.84737070168959
 31
10.0
  0
HATCH
  5
144
330
13D
100
AcDbEntity
  8
Schraffur
 62
     7
100
AcDbHatch
 10
0.0
 20
0.0
 30
0.0
210
0.0
220
0.0
230
1.0
  2
SOLID
 70
     1
 71
     1
 91
        1
 92
        1
 93
        4
 72
     2
 10
184.655189950303
 20
19.15390948356282
 40
0.3333333333333996
 50
0.0
 51
180.0
 73
     1
 72
     1
 10
184.3218566169696
 20
19.15390948356282
 11
184.3218566169696
 21
15.84737070168959
 72
     2
 10
184.655189950303
 20
15.84737070168959
 40
0.3333333333333997
 50
180.0
 51
360.0
 73
     1
 72
     1
 10
184.9885232836365
 20
15.84737070168959
 11
184.9885232836365
 21
19.15390948356282
 97
        4
330
140
330
141
330
142
330
143
 75
     0
 76
     1
 98
        1
 10
0.0
 20
0.0
  0
LINE
  5
145
102
{ACAD_REACTORS
330
14C
102
}
330
13D
100
AcDbEntity
  8
0
100
AcDbLine
 10
188.4894939320861
 20
14.02010125116808
 30
0.0
 11
186.3218576257727
 21
15.27066065865696
 31
0.0
  0
ARC
  5
146
102
{ACAD_REACTORS
330
14C
102
}
330
13D
100
AcDbEntity
  8
0
100
AcDbCircle
 10
188.3229197809228
 20
13.73137272248517
 30
0.0
 40
0.333333333333396
100
AcDbArc
 50
240.0183606311473
 51
60.01836063114733
  0
LINE
  5
147
102
{ACAD_REACTORS
330
14C
102
}
330
13D
100
AcDbEntity
  8
0
100
AcDbLine
 10
185.9887104250881
 20
14.69320296572853
 30
0.0
 11
188.1563456297596
 21
13.44264419380229
 31
0.0
  0
ARC
  5
148
102
{ACAD_REACTORS
330
14C
102
}
330
13D
100
AcDbEntity
  8
0
100
AcDbCircle
 10
186.3218598278342
 20
15.27066193048824
 30
0.0
 40
0.6666688687282916
100
AcDbArc
 50
180.0
 51
240.0183606311454
  0
LINE
  5
149
102
{ACAD_REACTORS
330
14C
102
}
330
13D
100
AcDbEntity
  8
0
100
AcDbLine
 10
185.6551909591059
 20
19.94397836659928
 30
0.0
 11
185.6551909591059
 21
15.27066193048824
 31
0.0
  0
ARC
  5
14A
102
{ACAD_REACTORS
330
14C
102
}
330
13D
100
AcDbEntity
  8
0
100
AcDbCircle
 10
185.9885242924393
 20
19.94397836659928
 30
0.0
 40
0.333333333333396
100
AcDbArc
 50
0.0
 51
180.0
  0
LINE
  5
14B
102
{ACAD_REACTORS
330
14C
102
}
330
13D
100
AcDbEntity
  8
0
100
AcDbLine
 10
186.3218576257727
 20
15.27066065865696
 30
0.0
 11
186.3218576257727
 21
19.94397836659928
 31
0.0
  0
HATCH
  5
14C
330
13D
100
AcDbEntity
  8
Schraffur
 62
     7
100
AcDbHatch
 10
0.0
 20
0.0
 30
0.0
210
0.0
220
0.0
230
1.0
  2
SOLID
 70
     1
 71
     1
 91
        1
 92
        1
 93
        7
 72
     1
 10
188.4894939320861
 20
14.02010125116808
 11
186.3218576257727
 21
15.27066065865696
 72
     1
 10
186.3218576257727
 20
15.27066065865696
 11
186.3218576257727
 21
19.94397836659928
 72
     2
 10
185.9885242924393
 20
19.94397836659928
 40
0.333333333333396
 50
0.0
 51
180.0
 73
     1
 72
     1
 10
185.6551909591059
 20
19.94397836659928
 11
185.6551909591059
 21
15.27066193048824
 72
     2
 10
186.3218598278342
 20
15.27066193048824
 40
0.6666688687282916
 50
180.0
 51
240.0183606311454
 73
     1
 72
     1
 10
185.9887104250881
 20
14.69320296572853
 11
188.1563456297596
 21
13.44264419380229
 72
     2
 10
188.3229197809228
 20
13.73137272248517
 40
0.333333333333396
 50
240.0183606311473
 51
420.0183606311473
 73
     1
 97
        7
330
145
330
14B
330
14A
330
149
330
148
330
147
330
146
 75
     0
 76
     1
 98
        1
 10
0.0
 20
0.0
  0
LINE
  5
14D
102
{ACAD_REACTORS
330
15A
102
}
330
13D
100
AcDbEntity
  8
0
100
AcDbLine
 10
188.655189950303
 20
18.85482345606895
 30
0.0
 11
187.4829623801859
 21
20.88518116554469
 31
0.0
  0
LINE
  5
14E
102
{ACAD_REACTORS
330
15A
102
}
330
13D
100
AcDbEntity
  8
0
100
AcDbLine
 10
189.82741752042
 20
20.88518116554469
 30
0.0
 11
188.655189950303
 21
18.85482345606895
 31
0.0
  0
ARC
  5
14F
102
{ACAD_REACTORS
330
15A
102
}
330
13D
100
AcDbEntity
  8
0
100
AcDbCircle
 10
190.0568849915682
 20
20.75269805930704
 30
0.0
 40
0.2649662124752865
100
AcDbArc
 50
0.0
 51
149.9999999999939
  0
LINE
  5
150
102
{ACAD_REACTORS
330
15A
102
}
330
13D
100
AcDbEntity
  8
0
100
AcDbLine
 10
190.3218512040435
 20
14.28806850858179
 30
0.0
 11
190.3218512040435
 21
20.75269805930705
 31
0.0
  0
ARC
  5
151
102
{ACAD_REACTORS
330
15A
102
}
330
13D
100
AcDbEntity
  8
0
100
AcDbCircle
 10
189.98851787071
 20
14.28806850858179
 30
0.0
 40
0.3333333333334023
100
AcDbArc
 50
180.0
 51
0.0
  0
LINE
  5
152
102
{ACAD_REACTORS
330
15A
102
}
330
13D
100
AcDbEntity
  8
0
100
AcDbLine
 10
189.6551845373767
 20
19.25353601487275
 30
0.0
 11
189.6551845373766
 21
14.28806850858179
 31
0.0
  0
LINE
  5
153
102
{ACAD_REACTORS
330
15A
102
}
330
13D
100
AcDbEntity
  8
0
100
AcDbLine
 10
188.7995275176003
 20
17.77149458276708
 30
0.0
 11
189.6551845373767
 21
19.25353601487275
 31
0.0
  0
ARC
  5
154
102
{ACAD_REACTORS
330
15A
102
}
330
13D
100
AcDbEntity
  8
0
100
AcDbCircle
 10
188.655189950303
 20
17.85482791610036
 30
0.0
 40
0.1666666666665381
100
AcDbArc
 50
209.9999999999992
 51
330.0000000000008
  0
LINE
  5
155
102
{ACAD_REACTORS
330
15A
102
}
330
13D
100
AcDbEntity
  8
0
100
AcDbLine
 10
187.6551953632293
 20
19.25353601487277
 30
0.0
 11
188.5108523830057
 21
17.77149458276708
 31
0.0
  0
LINE
  5
156
102
{ACAD_REACTORS
330
15A
102
}
330
13D
100
AcDbEntity
  8
0
100
AcDbLine
 10
187.6551953632293
 20
15.84737070168959
 30
0.0
 11
187.6551953632293
 21
19.25353601487277
 31
0.0
  0
ARC
  5
157
102
{ACAD_REACTORS
330
15A
102
}
330
13D
100
AcDbEntity
  8
0
100
AcDbCircle
 10
187.3218620298959
 20
15.84737070168959
 30
0.0
 40
0.333333333333396
100
AcDbArc
 50
180.0
 51
0.0
  0
LINE
  5
158
102
{ACAD_REACTORS
330
15A
102
}
330
13D
100
AcDbEntity
  8
0
100
AcDbLine
 10
186.9885286965624
 20
20.75269805930705
 30
0.0
 11
186.9885286965624
 21
15.84737070168959
 31
0.0
  0
ARC
  5
159
102
{ACAD_REACTORS
330
15A
102
}
330
13D
100
AcDbEntity
  8
0
100
AcDbCircle
 10
187.2534949090378
 20
20.75269805930705
 30
0.0
 40
0.2649662124752854
100
AcDbArc
 50
29.9999999999981
 51
180.0
  0
HATCH
  5
15A
330
13D
100
AcDbEntity
  8
Schraffur
 62
     7
100
AcDbHatch
 10
0.0
 20
0.0
 30
0.0
210
0.0
220
0.0
230
1.0
  2
SOLID
 70
     1
 71
     1
 91
        1
 92
        1
 93
       13
 72
     1
 10
188.655189950303
 20
18.85482345606895
 11
187.4829623801859
 21
20.88518116554469
 72
     2
 10
187.2534949090378
 20
20.75269805930705
 40
0.2649662124752854
 50
29.9999999999981
 51
180.0
 73
     1
 72
     1
 10
186.9885286965624
 20
20.75269805930705
 11
186.9885286965624
 21
15.84737070168959
 72
     2
 10
187.3218620298959
 20
15.84737070168959
 40
0.333333333333396
 50
180.0
 51
360.0
 73
     1
 72
     1
 10
187.6551953632293
 20
15.84737070168959
 11
187.6551953632293
 21
19.25353601487277
 72
     1
 10
187.6551953632293
 20
19.25353601487277
 11
188.5108523830057
 21
17.77149458276708
 72
     2
 10
188.655189950303
 20
17.85482791610036
 40
0.1666666666665381
 50
209.9999999999992
 51
330.0000000000008
 73
     1
 72
     1
 10
188.7995275176003
 20
17.77149458276708
 11
189.6551845373767
 21
19.25353601487275
 72
     1
 10
189.6551845373767
 20
19.25353601487275
 11
189.6551845373766
 21
14.28806850858179
 72
     2
 10
189.98851787071
 20
14.28806850858179
 40
0.3333333333334023
 50
180.0
 51
360.0
 73
     1
 72
     1
 10
190.3218512040435
 20
14.28806850858179
 11
190.3218512040435
 21
20.75269805930705
 72
     2
 10
190.0568849915682
 20
20.75269805930704
 40
0.2649662124752865
 50
0.0
 51
149.9999999999939
 73
     1
 72
     1
 10
189.82741752042
 20
20.88518116554469
 11
188.655189950303
 21
18.85482345606894
 97
       13
330
14D
330
159
330
158
330
157
330
156
330
155
330
154
330
153
330
152
330
151
330
150
330
14F
330
14E
 75
     0
 76
     1
 98
        1
 10
0.0
 20
0.0
  0
ARC
  5
15B
102
{ACAD_REACTORS
330
169
102
}
330
13D
100
AcDbEntity
  8
0
100
AcDbCircle
 10
192.6913083387628
 20
15.84737070168959
 30
10.0
 40
0.3333333333333919
100
AcDbArc
 50
299.9816393688529
 51
119.9816393688526
  0
LINE
  5
15C
102
{ACAD_REACTORS
330
169
102
}
330
13D
100
AcDbEntity
  8
0
100
AcDbLine
 10
191.6551889415001
 20
15.6344385114688
 30
10.0
 11
192.5247341875995
 21
16.13609923037247
 31
10.0
  0
LINE
  5
15D
102
{ACAD_REACTORS
330
169
102
}
330
13D
100
AcDbEntity
  8
0
100
AcDbLine
 10
191.6551889415001
 20
17.1673067592928
 30
10.0
 11
191.6551889415001
 21
15.6344385114688
 31
10.0
  0
LINE
  5
15E
102
{ACAD_REACTORS
330
169
102
}
330
13D
100
AcDbEntity
  8
0
100
AcDbLine
 10
192.6913083387628
 20
17.1673067592928
 30
10.0
 11
191.6551889415001
 21
17.1673067592928
 31
10.0
  0
ARC
  5
15F
102
{ACAD_REACTORS
330
169
102
}
330
13D
100
AcDbEntity
  8
0
100
AcDbCircle
 10
192.6913083387628
 20
17.5006400926262
 30
10.0
 40
0.333333333333396
100
AcDbArc
 50
270.0
 51
90.0
  0
LINE
  5
160
102
{ACAD_REACTORS
330
169
102
}
330
13D
100
AcDbEntity
  8
0
100
AcDbLine
 10
191.6551889415001
 20
17.8339734259596
 30
10.0
 11
192.6913083387628
 21
17.8339734259596
 31
10.0
  0
LINE
  5
161
102
{ACAD_REACTORS
330
169
102
}
330
13D
100
AcDbEntity
  8
0
100
AcDbLine
 10
191.6551889415001
 20
19.36684167378358
 30
10.0
 11
191.6551889415001
 21
17.8339734259596
 31
10.0
  0
LINE
  5
162
102
{ACAD_REACTORS
330
169
102
}
330
13D
100
AcDbEntity
  8
0
100
AcDbLine
 10
192.5247341875995
 20
18.86518095487989
 30
10.0
 11
191.6551889415001
 21
19.36684167378358
 31
10.0
  0
ARC
  5
163
102
{ACAD_REACTORS
330
169
102
}
330
13D
100
AcDbEntity
  8
0
100
AcDbCircle
 10
192.6913083387628
 20
19.15390948356282
 30
10.0
 40
0.3333333333333963
100
AcDbArc
 50
240.0183606311407
 51
60.01835942372524
  0
LINE
  5
164
102
{ACAD_REACTORS
330
169
102
}
330
13D
100
AcDbEntity
  8
0
100
AcDbLine
 10
191.4884297593299
 20
20.23270689528218
 30
10.0
 11
192.857882489926
 21
19.44263801224573
 31
10.0
  0
ARC
  5
165
102
{ACAD_REACTORS
330
169
102
}
330
13D
100
AcDbEntity
  8
0
100
AcDbCircle
 10
191.3218556081666
 20
19.94397836659928
 30
10.0
 40
0.333333333333396
100
AcDbArc
 50
60.01836063114071
 51
180.0
  0
LINE
  5
166
102
{ACAD_REACTORS
330
169
102
}
330
13D
100
AcDbEntity
  8
0
100
AcDbLine
 10
190.9885222748332
 20
15.05730181865312
 30
10.0
 11
190.9885222748332
 21
19.94397836659928
 31
10.0
  0
ARC
  5
167
102
{ACAD_REACTORS
330
169
102
}
330
13D
100
AcDbEntity
  8
0
100
AcDbCircle
 10
191.3218556081666
 20
15.05730181865312
 30
10.0
 40
0.333333333333396
100
AcDbArc
 50
180.0
 51
299.9816393688593
  0
LINE
  5
168
102
{ACAD_REACTORS
330
169
102
}
330
13D
100
AcDbEntity
  8
0
100
AcDbLine
 10
192.857882489926
 20
15.55864217300668
 30
10.0
 11
191.4884297593299
 21
14.7685732899702
 31
10.0
  0
HATCH
  5
169
330
13D
100
AcDbEntity
  8
Schraffur
 62
     7
100
AcDbHatch
 10
0.0
 20
0.0
 30
0.0
210
0.0
220
0.0
230
1.0
  2
SOLID
 70
     1
 71
     1
 91
        1
 92
        1
 93
       14
 72
     2
 10
192.6913083387628
 20
15.84737070168959
 40
0.3333333333333919
 50
299.9816393688529
 51
479.9816393688526
 73
     1
 72
     1
 10
192.5247341875995
 20
16.13609923037247
 11
191.6551889415001
 21
15.63443851146881
 72
     1
 10
191.6551889415001
 20
15.6344385114688
 11
191.6551889415001
 21
17.1673067592928
 72
     1
 10
191.6551889415001
 20
17.1673067592928
 11
192.6913083387628
 21
17.1673067592928
 72
     2
 10
192.6913083387628
 20
17.5006400926262
 40
0.333333333333396
 50
270.0
 51
450.0
 73
     1
 72
     1
 10
192.6913083387628
 20
17.8339734259596
 11
191.6551889415001
 21
17.8339734259596
 72
     1
 10
191.6551889415001
 20
17.8339734259596
 11
191.6551889415001
 21
19.36684167378358
 72
     1
 10
191.6551889415001
 20
19.36684167378358
 11
192.5247341875995
 21
18.86518095487989
 72
     2
 10
192.6913083387628
 20
19.15390948356282
 40
0.3333333333333963
 50
240.0183606311407
 51
420.0183594237252
 73
     1
 72
     1
 10
192.857882489926
 20
19.44263801224573
 11
191.4884297593299
 21
20.23270689528218
 72
     2
 10
191.3218556081666
 20
19.94397836659928
 40
0.333333333333396
 50
60.01836063114071
 51
180.0
 73
     1
 72
     1
 10
190.9885222748332
 20
19.94397836659928
 11
190.9885222748332
 21
15.05730181865312
 72
     2
 10
191.3218556081666
 20
15.05730181865312
 40
0.333333333333396
 50
180.0
 51
299.9816393688593
 73
     1
 72
     1
 10
191.4884297593299
 20
14.7685732899702
 11
192.857882489926
 21
15.55864217300668
 97
       14
330
15B
330
15C
330
15D
330
15E
330
15F
330
160
330
161
330
162
330
163
330
164
330
165
330
166
330
167
330
168
 75
     0
 76
     1
 98
        1
 10
0.0
 20
0.0
  0
LINE
  5
16A
330
13D
100
AcDbEntity
  8
Skizziergeometrie(ISO)
100
AcDbLine
 10
19.98018995030303
 20
45.0006400926262
 30
0.0
 11
199.980189950303
 21
45.0006400926262
 31
0.0
  0
LINE
  5
16B
330
13D
100
AcDbEntity
  8
Skizziergeometrie(ISO)
100
AcDbLine
 10
19.98018995030303
 20
40.0006400926262
 30
0.0
 11
199.980189950303
 21
40.0006400926262
 31
0.0
  0
LINE
  5
16C
330
13D
100
AcDbEntity
  8
Skizziergeometrie(ISO)
100
AcDbLine
 10
19.98018995030303
 20
35.00064009262621
 30
0.0
 11
199.980189950303
 21
35.00064009262621
 31
0.0
  0
LINE
  5
16D
330
13D
100
AcDbEntity
  8
Skizziergeometrie(ISO)
100
AcDbLine
 10
19.98018995030303
 20
30.00064009262621
 30
0.0
 11
199.980189950303
 21
30.00064009262621
 31
0.0
  0
LINE
  5
16E
330
13D
100
AcDbEntity
  8
Skizziergeometrie(ISO)
100
AcDbLine
 10
19.98018995030303
 20
25.00064009262621
 30
0.0
 11
199.980189950303
 21
25.00064009262621
 31
0.0
  0
LINE
  5
16F
330
13D
100
AcDbEntity
  8
Skizziergeometrie(ISO)
100
AcDbLine
 10
19.98018995030303
 20
17.5006400926262
 30
0.0
 11
49.98018995030306
 21
17.5006400926262
 31
0.0
  0
LINE
  5
170
330
13D
100
AcDbEntity
  8
Skizziergeometrie(ISO)
100
AcDbLine
 10
26.98018995030303
 20
45.0006400926262
 30
0.0
 11
26.98018995030303
 21
25.00064009262621
 31
0.0
  0
LINE
  5
171
330
13D
100
AcDbEntity
  8
Skizziergeometrie(ISO)
100
AcDbLine
 10
44.98018995030303
 20
45.0006400926262
 30
0.0
 11
44.98018995030303
 21
25.00064009262621
 31
0.0
  0
LINE
  5
172
330
13D
100
AcDbEntity
  8
Skizziergeometrie(ISO)
100
AcDbLine
 10
49.98018995030306
 20
10.0006400926262
 30
0.0
 11
49.98018995030306
 21
25.00064009262621
 31
0.0
  0
LINE
  5
173
330
13D
100
AcDbEntity
  8
Skizziergeometrie(ISO)
100
AcDbLine
 10
159.980189950303
 20
25.00064009262621
 30
0.0
 11
159.980189950303
 21
10.0006400926262
 31
0.0
  0
LINE
  5
174
330
13D
100
AcDbEntity
  8
Skizziergeometrie(ISO)
100
AcDbLine
 10
177.3301899503031
 20
25.0006400926262
 30
0.0
 11
177.3301899503031
 21
10.0006400926262
 31
0.0
  0
LINE
  5
175
330
13D
100
AcDbEntity
  8
Skizziergeometrie(ISO)
100
AcDbLine
 10
190.9885222748332
 20
15.05730181865312
 30
0.0
 11
190.9885222748332
 21
19.94397836659928
 31
0.0
  0
LINE
  5
176
330
13D
100
AcDbEntity
  8
Skizziergeometrie(ISO)
100
AcDbLine
 10
192.857882489926
 20
15.55864217300668
 30
0.0
 11
191.4884297593299
 21
14.7685732899702
 31
0.0
  0
LINE
  5
177
330
13D
100
AcDbEntity
  8
Skizziergeometrie(ISO)
100
AcDbLine
 10
191.6551889415001
 20
15.6344385114688
 30
0.0
 11
192.5247341875995
 21
16.13609923037247
 31
0.0
  0
LINE
  5
178
330
13D
100
AcDbEntity
  8
Skizziergeometrie(ISO)
100
AcDbLine
 10
191.6551889415001
 20
17.1673067592928
 30
0.0
 11
191.6551889415001
 21
15.6344385114688
 31
0.0
  0
LINE
  5
179
330
13D
100
AcDbEntity
  8
Skizziergeometrie(ISO)
100
AcDbLine
 10
192.6913083387628
 20
17.1673067592928
 30
0.0
 11
191.6551889415001
 21
17.1673067592928
 31
0.0
  0
LINE
  5
17A
330
13D
100
AcDbEntity
  8
Skizziergeometrie(ISO)
100
AcDbLine
 10
191.6551889415001
 20
17.8339734259596
 30
0.0
 11
192.6913083387628
 21
17.8339734259596
 31
0.0
  0
LINE
  5
17B
330
13D
100
AcDbEntity
  8
Skizziergeometrie(ISO)
100
AcDbLine
 10
191.6551889415001
 20
19.36684167378358
 30
0.0
 11
191.6551889415001
 21
17.8339734259596
 31
0.0
  0
LINE
  5
17C
330
13D
100
AcDbEntity
  8
Skizziergeometrie(ISO)
100
AcDbLine
 10
192.5247341875995
 20
18.86518095487989
 30
0.0
 11
191.6551889415001
 21
19.36684167378358
 31
0.0
  0
LINE
  5
17D
330
13D
100
AcDbEntity
  8
Skizziergeometrie(ISO)
100
AcDbLine
 10
191.4884297593299
 20
20.23270689528218
 30
0.0
 11
192.857882489926
 21
19.44263801224573
 31
0.0
  0
LINE
  5
17E
330
13D
100
AcDbEntity
  8
Skizziergeometrie(ISO)
100
AcDbLine
 10
184.3218566169696
 20
15.84737070168959
 30
0.0
 11
184.3218566169696
 21
19.15390948356282
 31
0.0
  0
LINE
  5
17F
330
13D
100
AcDbEntity
  8
Skizziergeometrie(ISO)
100
AcDbLine
 10
184.9885232836365
 20
19.15390948356282
 30
0.0
 11
184.9885232836365
 21
15.84737070168959
 31
0.0
  0
LINE
  5
180
330
13D
100
AcDbEntity
  8
Skizziergeometrie(ISO)
100
AcDbLine
 10
188.1563456297596
 20
13.44264419380229
 30
0.0
 11
185.9887104250881
 21
14.69320296572853
 31
0.0
  0
LINE
  5
181
330
13D
100
AcDbEntity
  8
Skizziergeometrie(ISO)
100
AcDbLine
 10
186.3218576257727
 20
15.27066065865696
 30
0.0
 11
188.4894939320861
 21
14.02010125116808
 31
0.0
  0
LINE
  5
182
330
13D
100
AcDbEntity
  8
Skizziergeometrie(ISO)
100
AcDbLine
 10
186.3218576257727
 20
19.94397836659928
 30
0.0
 11
186.3218576257727
 21
15.27066065865696
 31
0.0
  0
LINE
  5
183
330
13D
100
AcDbEntity
  8
Skizziergeometrie(ISO)
100
AcDbLine
 10
185.6551909591059
 20
15.27066193048824
 30
0.0
 11
185.6551909591059
 21
19.94397836659928
 31
0.0
  0
LINE
  5
184
330
13D
100
AcDbEntity
  8
Skizziergeometrie(ISO)
100
AcDbLine
 10
189.82741752042
 20
20.88518116554469
 30
0.0
 11
188.655189950303
 21
18.85482345606895
 31
0.0
  0
LINE
  5
185
330
13D
100
AcDbEntity
  8
Skizziergeometrie(ISO)
100
AcDbLine
 10
190.3218512040435
 20
14.28806850858179
 30
0.0
 11
190.3218512040435
 21
20.75269805930705
 31
0.0
  0
LINE
  5
186
330
13D
100
AcDbEntity
  8
Skizziergeometrie(ISO)
100
AcDbLine
 10
187.4829623801859
 20
20.88518116554469
 30
0.0
 11
188.655189950303
 21
18.85482345606895
 31
0.0
  0
LINE
  5
187
330
13D
100
AcDbEntity
  8
Skizziergeometrie(ISO)
100
AcDbLine
 10
186.9885286965624
 20
15.84737070168959
 30
0.0
 11
186.9885286965624
 21
20.75269805930705
 31
0.0
  0
LINE
  5
188
330
13D
100
AcDbEntity
  8
Skizziergeometrie(ISO)
100
AcDbLine
 10
188.655189950303
 20
12.50064009262539
 30
0.0
 11
180.2387546751623
 21
17.35627582828491
 31
0.0
  0
LINE
  5
189
330
13D
100
AcDbEntity
  8
Skizziergeometrie(ISO)
100
AcDbLine
 10
197.0716252254436
 20
17.35627582828489
 30
0.0
 11
188.655189950303
 21
12.50064009262539
 31
0.0
  0
LINE
  5
18A
330
13D
100
AcDbEntity
  8
Skizziergeometrie(ISO)
100
AcDbLine
 10
188.655189950303
 20
22.50064009262702
 30
0.0
 11
197.0716252254436
 21
17.6450043569675
 31
0.0
  0
LINE
  5
18B
330
13D
100
AcDbEntity
  8
Skizziergeometrie(ISO)
100
AcDbLine
 10
180.2387546751623
 20
17.6450043569675
 30
0.0
 11
188.655189950303
 21
22.50064009262702
 31
0.0
  0
LINE
  5
18C
330
13D
100
AcDbEntity
  8
Skizziergeometrie(ISO)
100
AcDbLine
 10
187.6551953632293
 20
19.25353601487277
 30
0.0
 11
187.6551953632293
 21
15.84737070168959
 31
0.0
  0
LINE
  5
18D
330
13D
100
AcDbEntity
  8
Skizziergeometrie(ISO)
100
AcDbLine
 10
188.5108523830057
 20
17.77149458276708
 30
0.0
 11
187.6551953632293
 21
19.25353601487277
 31
0.0
  0
LINE
  5
18E
330
13D
100
AcDbEntity
  8
Skizziergeometrie(ISO)
100
AcDbLine
 10
189.6551845373767
 20
19.25353601487275
 30
0.0
 11
188.7995275176003
 21
17.77149458276708
 31
0.0
  0
LINE
  5
18F
330
13D
100
AcDbEntity
  8
Skizziergeometrie(ISO)
100
AcDbLine
 10
189.6551845373766
 20
14.28806850858179
 30
0.0
 11
189.6551845373767
 21
19.25353601487275
 31
0.0
  0
ARC
  5
190
330
13D
100
AcDbEntity
  8
Skizziergeometrie(ISO)
100
AcDbCircle
 10
192.6913083387628
 20
15.84737070168959
 30
0.0
 40
0.3333333333333919
100
AcDbArc
 50
299.9816393688527
 51
119.98163936886
  0
ARC
  5
191
330
13D
100
AcDbEntity
  8
Skizziergeometrie(ISO)
100
AcDbCircle
 10
192.6913083387628
 20
17.5006400926262
 30
0.0
 40
0.333333333333396
100
AcDbArc
 50
270.0
 51
90.0
  0
ARC
  5
192
330
13D
100
AcDbEntity
  8
Skizziergeometrie(ISO)
100
AcDbCircle
 10
192.6913083387628
 20
19.15390948356282
 30
0.0
 40
0.3333333333333963
100
AcDbArc
 50
240.0183606311413
 51
60.01836063114108
  0
ARC
  5
193
330
13D
100
AcDbEntity
  8
Skizziergeometrie(ISO)
100
AcDbCircle
 10
184.655189950303
 20
15.84737070168959
 30
0.0
 40
0.3333333333333997
100
AcDbArc
 50
180.0
 51
0.0
  0
ARC
  5
194
330
13D
100
AcDbEntity
  8
Skizziergeometrie(ISO)
100
AcDbCircle
 10
184.655189950303
 20
19.15390948356282
 30
0.0
 40
0.3333333333333996
100
AcDbArc
 50
0.0
 51
180.0
  0
ARC
  5
195
330
13D
100
AcDbEntity
  8
Skizziergeometrie(ISO)
100
AcDbCircle
 10
188.3229197809228
 20
13.73137272248517
 30
0.0
 40
0.333333333333396
100
AcDbArc
 50
240.0183606311468
 51
60.01836063114108
  0
ARC
  5
196
330
13D
100
AcDbEntity
  8
Skizziergeometrie(ISO)
100
AcDbCircle
 10
185.9885242924393
 20
19.94397836659928
 30
0.0
 40
0.333333333333396
100
AcDbArc
 50
0.0
 51
180.0
  0
ARC
  5
197
330
13D
100
AcDbEntity
  8
Skizziergeometrie(ISO)
100
AcDbCircle
 10
190.0568849915682
 20
20.75269805930704
 30
0.0
 40
0.2649662124752865
100
AcDbArc
 50
0.0
 51
149.9999999999956
  0
ARC
  5
198
330
13D
100
AcDbEntity
  8
Skizziergeometrie(ISO)
100
AcDbCircle
 10
189.98851787071
 20
14.28806850858179
 30
0.0
 40
0.3333333333334023
100
AcDbArc
 50
180.0
 51
0.0
  0
ARC
  5
199
330
13D
100
AcDbEntity
  8
Skizziergeometrie(ISO)
100
AcDbCircle
 10
187.3218620298959
 20
15.84737070168959
 30
0.0
 40
0.333333333333396
100
AcDbArc
 50
180.0
 51
0.0
  0
ARC
  5
19A
330
13D
100
AcDbEntity
  8
Skizziergeometrie(ISO)
100
AcDbCircle
 10
187.2534949090378
 20
20.75269805930705
 30
0.0
 40
0.2649662124752854
100
AcDbArc
 50
29.99999999999976
 51
180.0
  0
ARC
  5
19B
330
13D
100
AcDbEntity
  8
Skizziergeometrie(ISO)
100
AcDbCircle
 10
191.3218556081666
 20
15.05730181865312
 30
0.0
 40
0.333333333333396
100
AcDbArc
 50
180.0
 51
299.9816393688587
  0
ARC
  5
19C
330
13D
100
AcDbEntity
  8
Skizziergeometrie(ISO)
100
AcDbCircle
 10
191.3218556081666
 20
19.94397836659928
 30
0.0
 40
0.333333333333396
100
AcDbArc
 50
60.01836063114071
 51
180.0
  0
ARC
  5
19D
330
13D
100
AcDbEntity
  8
Skizziergeometrie(ISO)
100
AcDbCircle
 10
196.9883381498621
 20
17.5006400926262
 30
0.0
 40
0.1666666666665381
100
AcDbArc
 50
299.9816393688627
 51
60.01836063115012
  0
ARC
  5
19E
330
13D
100
AcDbEntity
  8
Skizziergeometrie(ISO)
100
AcDbCircle
 10
180.3220417507439
 20
17.5006400926262
 30
0.0
 40
0.1666666666665381
100
AcDbArc
 50
119.9816393688498
 51
240.0183606311497
  0
ARC
  5
19F
330
13D
100
AcDbEntity
  8
Skizziergeometrie(ISO)
100
AcDbCircle
 10
186.3218598278342
 20
15.27066193048824
 30
0.0
 40
0.6666688687282916
100
AcDbArc
 50
180.0
 51
240.0183606311453
  0
ARC
  5
1A0
330
13D
100
AcDbEntity
  8
Skizziergeometrie(ISO)
100
AcDbCircle
 10
188.655189950303
 20
17.85482791610036
 30
0.0
 40
0.1666666666665381
100
AcDbArc
 50
209.9999999999999
 51
330.0000000000001
  0
LINE
  5
1A1
330
13D
100
AcDbEntity
  8
Skizzierlinie(TC_020513_DIN)
100
AcDbLine
 10
20.98018995030303
 20
25.00064009262621
 30
0.0
 11
20.98018995030303
 21
17.5006400926262
 31
0.0
  0
LINE
  5
1A2
330
13D
100
AcDbEntity
  8
Skizzierlinie(TC_020513_DIN)
100
AcDbLine
 10
20.98018995030303
 20
17.5006400926262
 30
0.0
 11
20.980189950303
 21
10.0006400926262
 31
0.0
  0
LINE
  5
1A3
330
13D
100
AcDbEntity
  8
Skizzierlinie(TC_020513_DIN)
100
AcDbLine
 10
49.98018995030306
 20
25.00064009262621
 30
0.0
 11
29.98018995030301
 21
17.5006400926262
 31
0.0
  0
LINE
  5
1A4
330
13D
100
AcDbEntity
  8
Skizzierlinie(TC_020513_DIN)
100
AcDbLine
 10
177.3301899503031
 20
25.0006400926262
 30
0.0
 11
159.980189950303
 21
20.0006400926262
 31
0.0
  0
LINE
  5
1A5
330
13D
100
AcDbEntity
  8
Skizzierlinie(TC_020513_DIN)
100
AcDbLine
 10
159.980189950303
 20
20.0006400926262
 30
0.0
 11
177.3301899503031
 21
10.0006400926262
 31
0.0
  0
LINE
  5
1A6
330
13D
100
AcDbEntity
  8
Skizziergeometrie(ISO)
100
AcDbLine
 10
19.98018995030303
 20
45.0006400926262
 30
0.0
 11
19.98018995030303
 21
10.0006400926262
 31
0.0
  0
LINE
  5
1A7
330
13D
100
AcDbEntity
  8
Skizzierlinie(TC_020513_DIN)
100
AcDbLine
 10
50.98018995030301
 20
25.00064009262621
 30
0.0
 11
50.98018995030301
 21
17.5006400926262
 31
0.0
  0
LINE
  5
1A8
330
13D
100
AcDbEntity
  8
Skizzierlinie(TC_020513_DIN)
100
AcDbLine
 10
50.98018995030301
 20
17.5006400926262
 30
0.0
 11
50.98018995030301
 21
10.0006400926262
 31
0.0
  0
MTEXT
  5
1A9
330
13D
100
AcDbEntity
  8
Symbole(ISO)
 62
     7
100
AcDbMText
 10
20.98018995030303
 20
21.2506400926262
 30
0.0
 40
2.5
 41
8.997516465920178
 71
     4
 72
     1
  1
 Date
  7
TC 2_5 mm
 73
     1
 44
1.0
1001
ACAD
1000
MTEXTBEGIN
1070
    73
1070
     1
1070
    44
1040
1.0
1070
    74
1070
     0
1000
MTEXTEND
  0
MTEXT
  5
1AA
330
13D
100
AcDbEntity
  8
Symbole(ISO)
 62
     7
100
AcDbMText
 10
20.980189950303
 20
13.7506400926262
 30
0.0
 40
2.5
 41
8.970966064125889
 71
     4
 72
     1
  1
 Sign.
  7
TC 2_5 mm
 73
     1
 44
1.0
1001
ACAD
1000
MTEXTBEGIN
1070
    73
1070
     1
1070
    44
1040
1.0
1070
    74
1070
     0
1000
MTEXTEND
  0
MTEXT
  5
1AB
330
13D
100
AcDbEntity
  8
Symbole(ISO)
 62
     7
100
AcDbMText
 10
168.655189950303
 20
22.5006400926262
 30
0.0
 40
2.5
 41
17.34061856478945
 71
     5
 72
     1
  1
Scale
  7
TC 2_5 mm
 73
     1
 44
1.0
1001
ACAD
1000
MTEXTBEGIN
1070
    73
1070
     1
1070
    44
1040
1.0
1070
    74
1070
     0
1000
MTEXTEND
  0
MTEXT
  5
1AC
330
13D
100
AcDbEntity
  8
Symbole(ISO)
 62
     7
100
AcDbMText
 10
39.98018995030301
 20
21.2506400926262
 30
0.0
 40
3.499999940395355
 41
20.95325017112982
 71
     5
 72
     1
  1
14.12.2006
  7
TC 3_5 mm
 73
     1
 44
1.0
1001
ACAD
1000
MTEXTBEGIN
1070
    73
1070
     1
1070
    44
1040
1.0
1070
    74
1070
     0
1000
MTEXTEND
  0
ATTDEF
  5
1AD
330
13D
100
AcDbEntity
  8
Symbole(ISO)
 62
     7
100
AcDbText
 10
50.98018995030301
 20
11.75064006282388
 30
0.0
 40
4.000000059604644
  1
hood top entry 1 lev. M25 no adapt.
 41
1.199999928474426
  7
Kopie von TC 5 mm
 11
50.98018995030301
 21
13.7506400926262
 31
0.0
100
AcDbAttributeDefinition
  3
BEZEICHNUNG
  2
BEZEICHNUNG
 70
     0
 74
     2
  0
ATTDEF
  5
1AE
330
13D
100
AcDbEntity
  8
Symbole(ISO)
 62
     7
100
AcDbText
 10
164.2856470919772
 20
12.5006400926262
 30
0.0
 40
5.0
  1
1:1
 41
0.899999976158142
  7
TC 5 mm
 72
     1
 11
168.655189950303
 21
15.0006400926262
 31
0.0
100
AcDbAttributeDefinition
  3
FirstViewScale
  2
FirstViewScale
 70
     0
 74
     2
  0
ATTDEF
  5
1AF
330
13D
100
AcDbEntity
  8
Symbole(ISO)
 62
     7
100
AcDbText
 10
50.98018995030301
 20
19.25064006282388
 30
0.0
 40
4.000000059604644
  1
MVFV 16 LG25
 41
1.199999928474426
  7
Kopie von TC 5 mm
 11
50.98018995030301
 21
21.2506400926262
 31
0.0
100
AcDbAttributeDefinition
  3
BAUTEILNUMMER
  2
BAUTEILNUMMER
 70
     0
 74
     2
  0
ENDBLK
  5
13F
330
13D
100
AcDbEntity
  8
0
100
AcDbBlockEnd
  0
BLOCK
  5
6B9
330
6AE
100
AcDbEntity
  8
0
100
AcDbBlockBegin
  2
*D9
 70
     1
 10
0.0
 20
0.0
 30
0.0
  3
*D9
  1

  0
LINE
  5
769
330
6AE
100
AcDbEntity
  8
Bemaßungen(TC_020513_DIN)
  6
Continuous
 62
     7
370
    25
100
AcDbLine
 10
71.42255755120915
 20
76.39715151264024
 30
0.0
 11
71.42255755120915
 21
59.39715151264024
 31
0.0
  0
LINE
  5
76A
330
6AE
100
AcDbEntity
  8
Bemaßungen(TC_020513_DIN)
  6
Continuous
 62
     7
370
    25
100
AcDbLine
 10
98.74655755120915
 20
77.89715151264025
 30
0.0
 11
98.74655755120915
 21
59.39715151264024
 31
0.0
  0
LINE
  5
76B
330
6AE
100
AcDbEntity
  8
Bemaßungen(TC_020513_DIN)
  6
Continuous
 62
     7
370
    25
100
AcDbLine
 10
73.92255755120915
 20
61.39715151264024
 30
0.0
 11
96.24655755120915
 21
61.39715151264024
 31
0.0
  0
SOLID
  5
76C
330
6AE
100
AcDbEntity
  8
Bemaßungen(TC_020513_DIN)
  6
Continuous
 62
     7
100
AcDbTrace
 10
73.92255755120915
 20
61.81381817930691
 30
0.0
 11
73.92255755120915
 21
60.98048484597358
 31
0.0
 12
71.42255755120915
 22
61.39715151264024
 32
0.0
 13
71.42255755120915
 23
61.39715151264024
 33
0.0
  0
SOLID
  5
76D
330
6AE
100
AcDbEntity
  8
Bemaßungen(TC_020513_DIN)
  6
Continuous
 62
     7
100
AcDbTrace
 10
96.24655755120915
 20
61.81381817930691
 30
0.0
 11
96.24655755120915
 21
60.98048484597358
 31
0.0
 12
98.74655755120915
 22
61.39715151264024
 32
0.0
 13
98.74655755120915
 23
61.39715151264024
 33
0.0
  0
MTEXT
  5
76E
330
6AE
100
AcDbEntity
  8
Bemaßungen(TC_020513_DIN)
  6
Continuous
 62
     7
370
    25
100
AcDbMText
 10
79.92886178040426
 20
65.77116242669209
 30
0.0
 40
3.5
 41
0.0
 71
     1
 72
     1
  1
\A1; M25
  7
Aktuell-BSI
 73
     1
 44
1.0
1001
ACAD
1000
MTEXTBEGIN
1070
    73
1070
     1
1070
    44
1040
1.0
1070
    74
1070
     0
1000
MTEXTEND
  0
POINT
  5
76F
330
6AE
100
AcDbEntity
  8
Defpoints
  6
Continuous
 62
     0
100
AcDbPoint
 10
71.42255755120915
 20
77.39715151264023
 30
0.0
  0
POINT
  5
770
330
6AE
100
AcDbEntity
  8
Defpoints
  6
Continuous
 62
     0
100
AcDbPoint
 10
98.74655755120915
 20
78.89715151264025
 30
0.0
  0
POINT
  5
771
330
6AE
100
AcDbEntity
  8
Defpoints
  6
Continuous
 62
     0
100
AcDbPoint
 10
98.74655755120915
 20
61.39715151264024
 30
0.0
  0
ENDBLK
  5
6BA
330
6AE
100
AcDbEntity
  8
0
100
AcDbBlockEnd
  0
BLOCK
  5
77E
330
773
100
AcDbEntity
  8
0
100
AcDbBlockBegin
  2
*D10
 70
     1
 10
0.0
 20
0.0
 30
0.0
  3
*D10
  1

  0
LINE
  5
829
330
773
100
AcDbEntity
  8
Bemaßungen(TC_020513_DIN)
  6
Continuous
 62
     7
370
    25
100
AcDbLine
 10
131.8345575512092
 20
78.39715151264023
 30
0.0
 11
131.8345575512092
 21
49.39715151264026
 31
0.0
  0
LINE
  5
82A
330
773
100
AcDbEntity
  8
Bemaßungen(TC_020513_DIN)
  6
Continuous
 62
     7
370
    25
100
AcDbLine
 10
38.33455755120917
 20
78.39715151264025
 30
0.0
 11
38.33455755120917
 21
49.39715151264026
 31
0.0
  0
LINE
  5
82B
330
773
100
AcDbEntity
  8
Bemaßungen(TC_020513_DIN)
  6
Continuous
 62
     7
370
    25
100
AcDbLine
 10
129.3345575512091
 20
51.39715151264026
 30
0.0
 11
40.83455755120916
 21
51.39715151264026
 31
0.0
  0
SOLID
  5
82C
330
773
100
AcDbEntity
  8
Bemaßungen(TC_020513_DIN)
  6
Continuous
 62
     7
100
AcDbTrace
 10
129.3345575512091
 20
51.81381817930692
 30
0.0
 11
129.3345575512091
 21
50.98048484597359
 31
0.0
 12
131.8345575512092
 22
51.39715151264026
 32
0.0
 13
131.8345575512092
 23
51.39715151264026
 33
0.0
  0
SOLID
  5
82D
330
773
100
AcDbEntity
  8
Bemaßungen(TC_020513_DIN)
  6
Continuous
 62
     7
100
AcDbTrace
 10
40.83455755120916
 20
51.81381817930692
 30
0.0
 11
40.83455755120916
 21
50.98048484597359
 31
0.0
 12
38.33455755120917
 22
51.39715151264026
 32
0.0
 13
38.33455755120917
 23
51.39715151264026
 33
0.0
  0
MTEXT
  5
82E
330
773
100
AcDbEntity
  8
Bemaßungen(TC_020513_DIN)
  6
Continuous
 62
     7
370
    25
100
AcDbMText
 10
80.52572399049976
 20
56.40383636939333
 30
0.0
 40
3.5
 41
0.0
 71
     1
 72
     1
  1
\A1;93,5
  7
Aktuell-BSI
 73
     1
 44
1.0
1001
ACAD
1000
MTEXTBEGIN
1070
    73
1070
     1
1070
    44
1040
1.0
1070
    74
1070
     0
1000
MTEXTEND
  0
POINT
  5
82F
330
773
100
AcDbEntity
  8
Defpoints
  6
Continuous
 62
     0
100
AcDbPoint
 10
131.8345575512092
 20
79.39715151264024
 30
0.0
  0
POINT
  5
830
330
773
100
AcDbEntity
  8
Defpoints
  6
Continuous
 62
     0
100
AcDbPoint
 10
38.33455755120917
 20
79.39715151264024
 30
0.0
  0
POINT
  5
831
330
773
100
AcDbEntity
  8
Defpoints
  6
Continuous
 62
     0
100
AcDbPoint
 10
38.33455755120917
 20
51.39715151264026
 30
0.0
  0
ENDBLK
  5
77F
330
773
100
AcDbEntity
  8
0
100
AcDbBlockEnd
  0
BLOCK
  5
83E
330
833
100
AcDbEntity
  8
0
100
AcDbBlockBegin
  2
*D11
 70
     1
 10
0.0
 20
0.0
 30
0.0
  3
*D11
  1

  0
LINE
  5
8E9
330
833
100
AcDbEntity
  8
Bemaßungen(TC_020513_DIN)
  6
Continuous
 62
     7
370
    25
100
AcDbLine
 10
31.33455755120917
 20
150.3971515126402
 30
0.0
 11
31.33455755120917
 21
181.6463846617154
 31
0.0
  0
LINE
  5
8EA
330
833
100
AcDbEntity
  8
Bemaßungen(TC_020513_DIN)
  6
Continuous
 62
     7
370
    25
100
AcDbLine
 10
138.8345575512091
 20
150.3971515126402
 30
0.0
 11
138.8345575512091
 21
181.6463846617154
 31
0.0
  0
LINE
  5
8EB
330
833
100
AcDbEntity
  8
Bemaßungen(TC_020513_DIN)
  6
Continuous
 62
     7
370
    25
100
AcDbLine
 10
33.83455755120917
 20
179.6463846617154
 30
0.0
 11
136.3345575512092
 21
179.6463846617154
 31
0.0
  0
SOLID
  5
8EC
330
833
100
AcDbEntity
  8
Bemaßungen(TC_020513_DIN)
  6
Continuous
 62
     7
100
AcDbTrace
 10
33.83455755120917
 20
180.0630513283821
 30
0.0
 11
33.83455755120917
 21
179.2297179950488
 31
0.0
 12
31.33455755120917
 22
179.6463846617154
 32
0.0
 13
31.33455755120917
 23
179.6463846617154
 33
0.0
  0
SOLID
  5
8ED
330
833
100
AcDbEntity
  8
Bemaßungen(TC_020513_DIN)
  6
Continuous
 62
     7
100
AcDbTrace
 10
136.3345575512092
 20
180.0630513283821
 30
0.0
 11
136.3345575512092
 21
179.2297179950488
 31
0.0
 12
138.8345575512091
 22
179.6463846617154
 32
0.0
 13
138.8345575512091
 23
179.6463846617154
 33
0.0
  0
MTEXT
  5
8EE
330
833
100
AcDbEntity
  8
Bemaßungen(TC_020513_DIN)
  6
Continuous
 62
     7
370
    25
100
AcDbMText
 10
79.33080584588857
 20
184.6530695184685
 30
0.0
 40
3.5
 41
0.0
 71
     1
 72
     1
  1
\A1;107,5
  7
Aktuell-BSI
 73
     1
 44
1.0
1001
ACAD
1000
MTEXTBEGIN
1070
    73
1070
     1
1070
    44
1040
1.0
1070
    74
1070
     0
1000
MTEXTEND
  0
POINT
  5
8EF
330
833
100
AcDbEntity
  8
Defpoints
  6
Continuous
 62
     0
100
AcDbPoint
 10
31.33455755120917
 20
149.3971515126403
 30
0.0
  0
POINT
  5
8F0
330
833
100
AcDbEntity
  8
Defpoints
  6
Continuous
 62
     0
100
AcDbPoint
 10
138.8345575512091
 20
149.3971515126403
 30
0.0
  0
POINT
  5
8F1
330
833
100
AcDbEntity
  8
Defpoints
  6
Continuous
 62
     0
100
AcDbPoint
 10
138.8345575512091
 20
179.6463846617154
 30
0.0
  0
ENDBLK
  5
83F
330
833
100
AcDbEntity
  8
0
100
AcDbBlockEnd
  0
BLOCK
  5
8FE
330
8F3
100
AcDbEntity
  8
0
100
AcDbBlockBegin
  2
*D12
 70
     1
 10
0.0
 20
0.0
 30
0.0
  3
*D12
  1

  0
LINE
  5
9A9
330
8F3
100
AcDbEntity
  8
Bemaßungen(TC_020513_DIN)
  6
Continuous
 62
     7
370
    25
100
AcDbLine
 10
199.8742394863683
 20
135.0698012434506
 30
0.0
 11
199.8742394863683
 21
181.6463846617154
 31
0.0
  0
LINE
  5
9AA
330
8F3
100
AcDbEntity
  8
Bemaßungen(TC_020513_DIN)
  6
Continuous
 62
     7
370
    25
100
AcDbLine
 10
267.5581894580858
 20
139.3971515126402
 30
0.0
 11
267.5581894580858
 21
181.6463846617154
 31
0.0
  0
LINE
  5
9AB
330
8F3
100
AcDbEntity
  8
Bemaßungen(TC_020513_DIN)
  6
Continuous
 62
     7
370
    25
100
AcDbLine
 10
202.3742394863683
 20
179.6463846617154
 30
0.0
 11
265.0581894580858
 21
179.6463846617154
 31
0.0
  0
SOLID
  5
9AC
330
8F3
100
AcDbEntity
  8
Bemaßungen(TC_020513_DIN)
  6
Continuous
 62
     7
100
AcDbTrace
 10
202.3742394863683
 20
180.0630513283821
 30
0.0
 11
202.3742394863683
 21
179.2297179950488
 31
0.0
 12
199.8742394863683
 22
179.6463846617154
 32
0.0
 13
199.8742394863683
 23
179.6463846617154
 33
0.0
  0
SOLID
  5
9AD
330
8F3
100
AcDbEntity
  8
Bemaßungen(TC_020513_DIN)
  6
Continuous
 62
     7
100
AcDbTrace
 10
265.0581894580858
 20
180.0630513283821
 30
0.0
 11
265.0581894580858
 21
179.2297179950488
 31
0.0
 12
267.5581894580858
 22
179.6463846617154
 32
0.0
 13
267.5581894580858
 23
179.6463846617154
 33
0.0
  0
MTEXT
  5
9AE
330
8F3
100
AcDbEntity
  8
Bemaßungen(TC_020513_DIN)
  6
Continuous
 62
     7
370
    25
100
AcDbMText
 10
231.1962622212039
 20
184.0203955757672
 30
0.0
 40
3.5
 41
0.0
 71
     1
 72
     1
  1
\A1;68
  7
Aktuell-BSI
 73
     1
 44
1.0
1001
ACAD
1000
MTEXTBEGIN
1070
    73
1070
     1
1070
    44
1040
1.0
1070
    74
1070
     0
1000
MTEXTEND
  0
POINT
  5
9AF
330
8F3
100
AcDbEntity
  8
Defpoints
  6
Continuous
 62
     0
100
AcDbPoint
 10
199.8742394863683
 20
134.0698012434506
 30
0.0
  0
POINT
  5
9B0
330
8F3
100
AcDbEntity
  8
Defpoints
  6
Continuous
 62
     0
100
AcDbPoint
 10
267.5581894580858
 20
138.3971515126402
 30
0.0
  0
POINT
  5
9B1
330
8F3
100
AcDbEntity
  8
Defpoints
  6
Continuous
 62
     0
100
AcDbPoint
 10
267.5581894580858
 20
179.6463846617154
 30
0.0
  0
ENDBLK
  5
8FF
330
8F3
100
AcDbEntity
  8
0
100
AcDbBlockEnd
  0
BLOCK
  5
9BE
330
9B3
100
AcDbEntity
  8
0
100
AcDbBlockBegin
  2
*D13
 70
     1
 10
0.0
 20
0.0
 30
0.0
  3
*D13
  1

  0
LINE
  5
A6E
330
9B3
100
AcDbEntity
  8
Bemaßungen(TC_020513_DIN)
  6
Continuous
 62
     7
370
    25
100
AcDbLine
 10
199.8742394863683
 20
78.39715151264023
 30
0.0
 11
199.8742394863683
 21
49.39715151264022
 31
0.0
  0
LINE
  5
A6F
330
9B3
100
AcDbEntity
  8
Bemaßungen(TC_020513_DIN)
  6
Continuous
 62
     7
370
    25
100
AcDbLine
 10
243.3742394863683
 20
78.39715151264023
 30
0.0
 11
243.3742394863683
 21
49.39715151264022
 31
0.0
  0
LINE
  5
A70
330
9B3
100
AcDbEntity
  8
Bemaßungen(TC_020513_DIN)
  6
Continuous
 62
     7
370
    25
100
AcDbLine
 10
202.3742394863683
 20
51.39715151264022
 30
0.0
 11
240.8742394863683
 21
51.39715151264022
 31
0.0
  0
SOLID
  5
A71
330
9B3
100
AcDbEntity
  8
Bemaßungen(TC_020513_DIN)
  6
Continuous
 62
     7
100
AcDbTrace
 10
202.3742394863683
 20
51.81381817930688
 30
0.0
 11
202.3742394863683
 21
50.98048484597356
 31
0.0
 12
199.8742394863683
 22
51.39715151264022
 32
0.0
 13
199.8742394863683
 23
51.39715151264022
 33
0.0
  0
SOLID
  5
A72
330
9B3
100
AcDbEntity
  8
Bemaßungen(TC_020513_DIN)
  6
Continuous
 62
     7
100
AcDbTrace
 10
240.8742394863683
 20
51.81381817930688
 30
0.0
 11
240.8742394863683
 21
50.98048484597356
 31
0.0
 12
243.3742394863683
 22
51.39715151264022
 32
0.0
 13
243.3742394863683
 23
51.39715151264022
 33
0.0
  0
MTEXT
  5
A73
330
9B3
100
AcDbEntity
  8
Bemaßungen(TC_020513_DIN)
  6
Continuous
 62
     7
370
    25
100
AcDbMText
 10
216.9949761848676
 20
56.40383636939329
 30
0.0
 40
3.5
 41
0.0
 71
     1
 72
     1
  1
\A1;43,5
  7
Aktuell-BSI
 73
     1
 44
1.0
1001
ACAD
1000
MTEXTBEGIN
1070
    73
1070
     1
1070
    44
1040
1.0
1070
    74
1070
     0
1000
MTEXTEND
  0
POINT
  5
A74
330
9B3
100
AcDbEntity
  8
Defpoints
  6
Continuous
 62
     0
100
AcDbPoint
 10
199.8742394863683
 20
79.39715151264024
 30
0.0
  0
POINT
  5
A75
330
9B3
100
AcDbEntity
  8
Defpoints
  6
Continuous
 62
     0
100
AcDbPoint
 10
243.3742394863683
 20
79.39715151264024
 30
0.0
  0
POINT
  5
A76
330
9B3
100
AcDbEntity
  8
Defpoints
  6
Continuous
 62
     0
100
AcDbPoint
 10
243.3742394863683
 20
51.39715151264022
 30
0.0
  0
ENDBLK
  5
9BF
330
9B3
100
AcDbEntity
  8
0
100
AcDbBlockEnd
  0
BLOCK
  5
A83
330
A78
100
AcDbEntity
  8
0
100
AcDbBlockBegin
  2
*D14
 70
     1
 10
0.0
 20
0.0
 30
0.0
  3
*D14
  1

  0
LINE
  5
B29
330
A78
100
AcDbEntity
  8
Bemaßungen(TC_020513_DIN)
  6
Continuous
 62
     7
370
    25
100
AcDbLine
 10
204.8742394863671
 20
77.39715151264023
 30
0.0
 11
184.4573413515743
 21
77.39715151264023
 31
0.0
  0
LINE
  5
B2A
330
A78
100
AcDbEntity
  8
Bemaßungen(TC_020513_DIN)
  6
Continuous
 62
     7
370
    25
100
AcDbLine
 10
204.6242394863665
 20
158.3971515126402
 30
0.0
 11
184.4573413515743
 21
158.3971515126402
 31
0.0
  0
LINE
  5
B2B
330
A78
100
AcDbEntity
  8
Bemaßungen(TC_020513_DIN)
  6
Continuous
 62
     7
370
    25
100
AcDbLine
 10
186.4573413515743
 20
79.89715151264023
 30
0.0
 11
186.4573413515743
 21
155.8971515126402
 31
0.0
  0
SOLID
  5
B2C
330
A78
100
AcDbEntity
  8
Bemaßungen(TC_020513_DIN)
  6
Continuous
 62
     7
100
AcDbTrace
 10
186.0406746849077
 20
79.89715151264023
 30
0.0
 11
186.874008018241
 21
79.89715151264023
 31
0.0
 12
186.4573413515743
 22
77.39715151264023
 32
0.0
 13
186.4573413515743
 23
77.39715151264023
 33
0.0
  0
SOLID
  5
B2D
330
A78
100
AcDbEntity
  8
Bemaßungen(TC_020513_DIN)
  6
Continuous
 62
     7
100
AcDbTrace
 10
186.0406746849077
 20
155.8971515126402
 30
0.0
 11
186.874008018241
 21
155.8971515126402
 31
0.0
 12
186.4573413515743
 22
158.3971515126402
 32
0.0
 13
186.4573413515743
 23
158.3971515126402
 33
0.0
  0
MTEXT
  5
B2E
330
A78
100
AcDbEntity
  8
Bemaßungen(TC_020513_DIN)
  6
Continuous
 62
     7
370
    25
100
AcDbMText
 10
182.0833304375224
 20
115.7257667923128
 30
0.0
 40
3.5
 41
0.0
 71
     1
 72
     1
  1
\A1;81
  7
Aktuell-BSI
 11
0.0000000000000001
 21
1.0
 31
0.0
 73
     1
 44
1.0
1001
ACAD
1000
MTEXTBEGIN
1070
    73
1070
     1
1070
    44
1040
1.0
1070
    74
1070
     0
1000
MTEXTEND
  0
POINT
  5
B2F
330
A78
100
AcDbEntity
  8
Defpoints
  6
Continuous
 62
     0
100
AcDbPoint
 10
205.8742394863671
 20
77.39715151264023
 30
0.0
  0
POINT
  5
B30
330
A78
100
AcDbEntity
  8
Defpoints
  6
Continuous
 62
     0
100
AcDbPoint
 10
205.6242394863665
 20
158.3971515126402
 30
0.0
  0
POINT
  5
B31
330
A78
100
AcDbEntity
  8
Defpoints
  6
Continuous
 62
     0
100
AcDbPoint
 10
186.4573413515743
 20
158.3971515126402
 30
0.0
  0
ENDBLK
  5
A84
330
A78
100
AcDbEntity
  8
0
100
AcDbBlockEnd
  0
ENDSEC
  0
SECTION
  2
ENTITIES
  0
INSERT
  5
13C
330
37
100
AcDbEntity
  8
0
100
AcDbBlockReference
  2
Ränder Ilme Rahmen A4 quer
 10
0.0
 20
0.0
 30
0.0
  0
INSERT
  5
1B0
330
37
100
AcDbEntity
  8
0
100
AcDbBlockReference
 66
     1
  2
Schriftfelder Ilme
 10
87.01981004969702
 20
-0.0006400926262484
 30
0.0
  0
ATTRIB
  5
1B2
330
1B0
100
AcDbEntity
  8
Symbole(ISO)
 62
     7
100
AcDbText
 10
138.0
 20
11.74999997019763
 30
0.0
 40
4.000000059604644
  1
hood top entry 1 lev. M25 no adapt.
 41
1.199999928474426
  7
Kopie von TC 5 mm
 11
138.0
 21
13.74999999999995
 31
0.0
100
AcDbAttribute
  2
BEZEICHNUNG
 70
     0
 74
     2
  0
ATTRIB
  5
1B3
330
1B0
100
AcDbEntity
  8
Symbole(ISO)
 62
     7
100
AcDbText
 10
251.3054571416743
 20
12.49999999999995
 30
0.0
 40
5.0
  1
1:1
 41
0.899999976158142
  7
TC 5 mm
 72
     1
 11
255.675
 21
14.99999999999995
 31
0.0
100
AcDbAttribute
  2
FirstViewScale
 70
     0
 74
     2
  0
ATTRIB
  5
1B4
330
1B0
100
AcDbEntity
  8
Symbole(ISO)
 62
     7
100
AcDbText
 10
138.0
 20
19.24999997019763
 30
0.0
 40
4.000000059604644
  1
MVFV 16 LG25
 41
1.199999928474426
  7
Kopie von TC 5 mm
 11
138.0
 21
21.24999999999996
 31
0.0
100
AcDbAttribute
  2
BAUTEILNUMMER
 70
     0
 74
     2
  0
SEQEND
  5
1B1
330
1B0
100
AcDbEntity
  8
0
  0
ARC
  5
1B5
330
37
100
AcDbEntity
  8
Sichtbare Kanten(TC_020513_DIN)
100
AcDbCircle
 10
88.08455755120917
 20
159.8971515126402
 30
0.0
 40
0.2499999999999991
100
AcDbArc
 50
270.0
 51
90.0
  0
LINE
  5
1B6
330
37
100
AcDbEntity
  8
Sichtbare Kanten(TC_020513_DIN)
100
AcDbLine
 10
88.08455755120917
 20
159.6471515126402
 30
0.0
 11
87.33455755120916
 21
159.6471515126402
 31
0.0
  0
LINE
  5
1B7
330
37
100
AcDbEntity
  8
Sichtbare Kanten(TC_020513_DIN)
100
AcDbLine
 10
87.33455755120916
 20
159.6471515126402
 30
0.0
 11
87.33455755120916
 21
158.5997154372405
 31
0.0
  0
LINE
  5
1B8
330
37
100
AcDbEntity
  8
Sichtbare Kanten(TC_020513_DIN)
100
AcDbLine
 10
87.33455755120916
 20
158.5997154372405
 30
0.0
 11
87.95962693783677
 21
158.9603323910641
 31
0.0
  0
ARC
  5
1B9
330
37
100
AcDbEntity
  8
Sichtbare Kanten(TC_020513_DIN)
100
AcDbCircle
 10
88.08455755120917
 20
158.743785994552
 30
0.0
 40
0.2500000000000026
100
AcDbArc
 50
299.9816393688505
 51
119.9816393688506
  0
LINE
  5
1BA
330
37
100
AcDbEntity
  8
Sichtbare Kanten(TC_020513_DIN)
100
AcDbLine
 10
88.20948816458155
 20
158.5272395980398
 30
0.0
 11
87.20948816458156
 21
157.9503165211167
 31
0.0
  0
ARC
  5
1BB
330
37
100
AcDbEntity
  8
Sichtbare Kanten(TC_020513_DIN)
100
AcDbCircle
 10
87.08455755120915
 20
158.1668629176289
 30
0.0
 40
0.2499999999999991
100
AcDbArc
 50
180.0
 51
299.981639368847
  0
LINE
  5
1BC
330
37
100
AcDbEntity
  8
Sichtbare Kanten(TC_020513_DIN)
100
AcDbLine
 10
86.83455755120915
 20
158.1668629176289
 30
0.0
 11
86.83455755120915
 21
161.6274401076515
 31
0.0
  0
LINE
  5
1BD
330
37
100
AcDbEntity
  8
Sichtbare Kanten(TC_020513_DIN)
100
AcDbLine
 10
87.33455755120916
 20
160.1471515126402
 30
0.0
 11
88.08455755120917
 21
160.1471515126402
 31
0.0
  0
LINE
  5
1BE
330
37
100
AcDbEntity
  8
Sichtbare Kanten(TC_020513_DIN)
100
AcDbLine
 10
87.33455755120916
 20
161.1945875880399
 30
0.0
 11
87.33455755120916
 21
160.1471515126402
 31
0.0
  0
LINE
  5
1BF
330
37
100
AcDbEntity
  8
Sichtbare Kanten(TC_020513_DIN)
100
AcDbLine
 10
87.95962693783677
 20
160.8339706342163
 30
0.0
 11
87.33455755120916
 21
161.1945875880399
 31
0.0
  0
ARC
  5
1C0
330
37
100
AcDbEntity
  8
Sichtbare Kanten(TC_020513_DIN)
100
AcDbCircle
 10
88.08455755120915
 20
161.0505170307285
 30
0.0
 40
0.2499999999999989
100
AcDbArc
 50
240.018360631151
 51
60.01836063115092
  0
LINE
  5
1C1
330
37
100
AcDbEntity
  8
Sichtbare Kanten(TC_020513_DIN)
100
AcDbLine
 10
87.20948816458156
 20
161.8439865041637
 30
0.0
 11
88.20948816458155
 21
161.2670634272406
 31
0.0
  0
ARC
  5
1C2
330
37
100
AcDbEntity
  8
Sichtbare Kanten(TC_020513_DIN)
100
AcDbCircle
 10
87.08455755120915
 20
161.6274401076515
 30
0.0
 40
0.2500000000000005
100
AcDbArc
 50
60.0183606311474
 51
180.0
  0
ARC
  5
1C3
330
37
100
AcDbEntity
  8
Sichtbare Kanten(TC_020513_DIN)
100
AcDbCircle
 10
82.03455755120916
 20
158.7726321483981
 30
0.0
 40
0.2500000000000002
100
AcDbArc
 50
180.0
 51
0.0
  0
LINE
  5
1C4
330
37
100
AcDbEntity
  8
Sichtbare Kanten(TC_020513_DIN)
100
AcDbLine
 10
81.78455755120916
 20
158.7726321483981
 30
0.0
 11
81.78455755120916
 21
161.0216708768823
 31
0.0
  0
ARC
  5
1C5
330
37
100
AcDbEntity
  8
Sichtbare Kanten(TC_020513_DIN)
100
AcDbCircle
 10
82.03455755120916
 20
161.0216708768823
 30
0.0
 40
0.2500000000000002
100
AcDbArc
 50
0.0
 51
180.0
  0
LINE
  5
1C6
330
37
100
AcDbEntity
  8
Sichtbare Kanten(TC_020513_DIN)
100
AcDbLine
 10
82.28455755120917
 20
161.0216708768823
 30
0.0
 11
82.28455755120917
 21
158.7726321483981
 31
0.0
  0
LINE
  5
1C7
330
37
100
AcDbEntity
  8
Sichtbare Kanten(TC_020513_DIN)
100
AcDbLine
 10
91.08427985054904
 20
159.8971515126402
 30
0.0
 11
85.08455755120918
 21
163.3585297622594
 31
0.0
  0
LINE
  5
1C8
330
37
100
AcDbEntity
  8
Sichtbare Kanten(TC_020513_DIN)
100
AcDbLine
 10
85.08455755120918
 20
163.3585297622594
 30
0.0
 11
79.08483525186928
 21
159.8971515126402
 31
0.0
  0
LINE
  5
1C9
330
37
100
AcDbEntity
  8
Sichtbare Kanten(TC_020513_DIN)
100
AcDbLine
 10
85.08455755120918
 20
163.6471515126402
 30
0.0
 11
91.58455755120916
 21
159.8971515126402
 31
0.0
  0
LINE
  5
1CA
330
37
100
AcDbEntity
  8
Sichtbare Kanten(TC_020513_DIN)
100
AcDbLine
 10
91.58455755120916
 20
159.8971515126402
 30
0.0
 11
85.08455755120918
 21
156.1471515126402
 31
0.0
  0
LINE
  5
1CB
330
37
100
AcDbEntity
  8
Sichtbare Kanten(TC_020513_DIN)
100
AcDbLine
 10
79.08483525186928
 20
159.8971515126402
 30
0.0
 11
85.08455755120918
 21
156.435773263021
 31
0.0
  0
LINE
  5
1CC
330
37
100
AcDbEntity
  8
Sichtbare Kanten(TC_020513_DIN)
100
AcDbLine
 10
85.08455755120918
 20
156.435773263021
 30
0.0
 11
91.08427985054904
 21
159.8971515126402
 31
0.0
  0
LINE
  5
1CD
330
37
100
AcDbEntity
  8
Sichtbare Kanten(TC_020513_DIN)
100
AcDbLine
 10
85.08455755120918
 20
156.1471515126402
 30
0.0
 11
78.58455755120916
 21
159.8971515126402
 31
0.0
  0
LINE
  5
1CE
330
37
100
AcDbEntity
  8
Sichtbare Kanten(TC_020513_DIN)
100
AcDbLine
 10
78.58455755120916
 20
159.8971515126402
 30
0.0
 11
85.08455755120918
 21
163.6471515126402
 31
0.0
  0
ARC
  5
1CF
330
37
100
AcDbEntity
  8
Sichtbare Kanten(TC_020513_DIN)
100
AcDbCircle
 10
85.08455755120918
 20
157.0130167637827
 30
0.0
 40
0.2499999999999978
100
AcDbArc
 50
240.0183614849213
 51
60.0183606311494
  0
LINE
  5
1D0
330
37
100
AcDbEntity
  8
Sichtbare Kanten(TC_020513_DIN)
100
AcDbLine
 10
84.95962693783679
 20
156.7964703672705
 30
0.0
 11
82.90962693783676
 21
157.9791626749629
 31
0.0
  0
ARC
  5
1D1
330
37
100
AcDbEntity
  8
Sichtbare Kanten(TC_020513_DIN)
100
AcDbCircle
 10
83.03455755120916
 20
158.195709071475
 30
0.0
 40
0.2499999999999975
100
AcDbArc
 50
180.0
 51
240.018360631153
  0
LINE
  5
1D2
330
37
100
AcDbEntity
  8
Sichtbare Kanten(TC_020513_DIN)
100
AcDbLine
 10
82.78455755120916
 20
158.195709071475
 30
0.0
 11
82.78455755120916
 21
161.5985939538054
 31
0.0
  0
LINE
  5
1D3
330
37
100
AcDbEntity
  8
Sichtbare Kanten(TC_020513_DIN)
100
AcDbLine
 10
83.28455755120916
 20
158.3401000526251
 30
0.0
 11
85.20948816458156
 21
157.2295631602949
 31
0.0
  0
LINE
  5
1D4
330
37
100
AcDbEntity
  8
Sichtbare Kanten(TC_020513_DIN)
100
AcDbLine
 10
83.28455755120916
 20
161.5985939538054
 30
0.0
 11
83.28455755120916
 21
158.3401000526251
 31
0.0
  0
ARC
  5
1D5
330
37
100
AcDbEntity
  8
Sichtbare Kanten(TC_020513_DIN)
100
AcDbCircle
 10
83.03455755120916
 20
161.5985939538054
 30
0.0
 40
0.2499999999999996
100
AcDbArc
 50
0.0
 51
180.0
  0
LINE
  5
1D6
330
37
100
AcDbEntity
  8
Sichtbare Kanten(TC_020513_DIN)
100
AcDbLine
 10
84.28704345753621
 20
162.3509901184541
 30
0.0
 11
85.08455755120918
 21
161.2496551877337
 31
0.0
  0
LINE
  5
1D7
330
37
100
AcDbEntity
  8
Sichtbare Kanten(TC_020513_DIN)
100
AcDbLine
 10
85.08455755120918
 20
161.2496551877337
 30
0.0
 11
85.88207164488212
 21
162.3509901184541
 31
0.0
  0
ARC
  5
1D8
330
37
100
AcDbEntity
  8
Sichtbare Kanten(TC_020513_DIN)
100
AcDbCircle
 10
86.08455755120916
 20
162.2043631845746
 30
0.0
 40
0.2500000000000012
100
AcDbArc
 50
0.0
 51
144.0904238229659
  0
LINE
  5
1D9
330
37
100
AcDbEntity
  8
Sichtbare Kanten(TC_020513_DIN)
100
AcDbLine
 10
86.33455755120918
 20
162.2043631845746
 30
0.0
 11
86.33455755120918
 21
157.5899398407058
 31
0.0
  0
ARC
  5
1DA
330
37
100
AcDbEntity
  8
Sichtbare Kanten(TC_020513_DIN)
100
AcDbCircle
 10
86.08455755120916
 20
157.5899398407058
 30
0.0
 40
0.25
100
AcDbArc
 50
180.0
 51
0.0
  0
LINE
  5
1DB
330
37
100
AcDbEntity
  8
Sichtbare Kanten(TC_020513_DIN)
100
AcDbLine
 10
85.83455755120915
 20
157.5899398407058
 30
0.0
 11
85.83455755120915
 21
161.4328713884309
 31
0.0
  0
LINE
  5
1DC
330
37
100
AcDbEntity
  8
Sichtbare Kanten(TC_020513_DIN)
100
AcDbLine
 10
85.83455755120915
 20
161.4328713884309
 30
0.0
 11
85.08455755120918
 21
160.3971515126402
 31
0.0
  0
ARC
  5
1DD
330
37
100
AcDbEntity
  8
Sichtbare Kanten(TC_020513_DIN)
100
AcDbCircle
 10
84.08455755120916
 20
162.2043631845746
 30
0.0
 40
0.2499999999999996
100
AcDbArc
 50
35.90957617703406
 51
180.0
  0
LINE
  5
1DE
330
37
100
AcDbEntity
  8
Sichtbare Kanten(TC_020513_DIN)
100
AcDbLine
 10
83.83455755120918
 20
158.7726321483981
 30
0.0
 11
83.83455755120918
 21
162.2043631845746
 31
0.0
  0
ARC
  5
1DF
330
37
100
AcDbEntity
  8
Sichtbare Kanten(TC_020513_DIN)
100
AcDbCircle
 10
84.08455755120916
 20
158.7726321483981
 30
0.0
 40
0.2499999999999992
100
AcDbArc
 50
180.0
 51
0.0
  0
LINE
  5
1E0
330
37
100
AcDbEntity
  8
Sichtbare Kanten(TC_020513_DIN)
100
AcDbLine
 10
84.33455755120915
 20
161.4328713884309
 30
0.0
 11
84.33455755120915
 21
158.7726321483981
 31
0.0
  0
LINE
  5
1E1
330
37
100
AcDbEntity
  8
Sichtbare Kanten(TC_020513_DIN)
100
AcDbLine
 10
85.08455755120918
 20
160.3971515126402
 30
0.0
 11
84.33455755120915
 21
161.4328713884309
 31
0.0
  0
LINE
  5
1E2
330
37
100
AcDbEntity
  8
Sichtbare Kanten(TC_020513_DIN)
100
AcDbLine
 10
121.9580403267882
 20
155.1979598191378
 30
0.0
 11
122.3264387920461
 21
156.5728416089109
 31
0.0
  0
ARC
  5
1E3
330
37
100
AcDbEntity
  8
Sichtbare Kanten(TC_020513_DIN)
100
AcDbCircle
 10
122.5679202486184
 20
156.5081368476353
 30
0.0
 40
0.2500000000000089
100
AcDbArc
 50
89.99999999999593
 51
164.9999999999975
  0
LINE
  5
1E4
330
37
100
AcDbEntity
  8
Sichtbare Kanten(TC_020513_DIN)
100
AcDbLine
 10
122.5679202486184
 20
156.7581368476353
 30
0.0
 11
132.0345575512091
 21
156.7581368476353
 31
0.0
  0
LINE
  5
1E5
330
37
100
AcDbEntity
  8
Sichtbare Kanten(TC_020513_DIN)
100
AcDbLine
 10
132.0345575512091
 20
166.7581368476353
 30
0.0
 11
130.0679202486184
 21
166.7581368476353
 31
0.0
  0
ARC
  5
1E6
330
37
100
AcDbEntity
  8
Sichtbare Kanten(TC_020513_DIN)
100
AcDbCircle
 10
130.0679202486184
 20
165.7581368476353
 30
0.0
 40
1.000000000000018
100
AcDbArc
 50
90.0
 51
139.9999999999977
  0
LINE
  5
1E7
330
37
100
AcDbEntity
  8
Sichtbare Kanten(TC_020513_DIN)
100
AcDbLine
 10
129.3018758054994
 20
166.4009244573218
 30
0.0
 11
128.2231501130728
 21
165.1153492379487
 31
0.0
  0
ARC
  5
1E8
330
37
100
AcDbEntity
  8
Sichtbare Kanten(TC_020513_DIN)
100
AcDbCircle
 10
127.4571056699538
 20
165.7581368476353
 30
0.0
 40
1.000000000000018
100
AcDbArc
 50
270.0
 51
319.9999999999999
  0
LINE
  5
1E9
330
37
100
AcDbEntity
  8
Sichtbare Kanten(TC_020513_DIN)
100
AcDbLine
 10
127.4571056699538
 20
164.7581368476353
 30
0.0
 11
122.5679202486184
 21
164.7581368476353
 31
0.0
  0
ARC
  5
1EA
330
37
100
AcDbEntity
  8
Sichtbare Kanten(TC_020513_DIN)
100
AcDbCircle
 10
122.5679202486184
 20
166.2581368476353
 30
0.0
 40
1.499999999999992
100
AcDbArc
 50
226.2398789709817
 51
270.0
  0
LINE
  5
1EB
330
37
100
AcDbEntity
  8
Sichtbare Kanten(TC_020513_DIN)
100
AcDbLine
 10
120.4567706256914
 20
166.574774150226
 30
0.0
 11
119.134635518959
 21
166.574774150226
 31
0.0
  0
LINE
  5
1EC
330
37
100
AcDbEntity
  8
Sichtbare Kanten(TC_020513_DIN)
100
AcDbLine
 10
117.2027838663808
 20
166.574774150226
 30
0.0
 11
119.134635518959
 21
166.574774150226
 31
0.0
  0
ELLIPSE
  5
1ED
330
37
100
AcDbEntity
  8
Sichtbare Kanten(TC_020513_DIN)
100
AcDbEllipse
 10
118.1619426013545
 20
149.5670625144713
 30
0.0
 11
1.999999999999997
 21
0.0000000000000009
 31
0.0
210
0.0
220
0.0
230
1.0
 40
0.9063077870366488
 41
4.712388980384689
 42
6.021385919380437
  0
LINE
  5
1EE
330
37
100
AcDbEntity
  8
Sichtbare Kanten(TC_020513_DIN)
100
AcDbLine
 10
120.0937942539326
 20
149.0979230824517
 30
0.0
 11
121.7223399067346
 21
154.6062942527008
 31
0.0
  0
LINE
  5
1EF
330
37
100
AcDbEntity
  8
Sichtbare Kanten(TC_020513_DIN)
100
AcDbLine
 10
119.134635518959
 20
167.974774150226
 30
0.0
 11
117.2027838663808
 21
167.974774150226
 31
0.0
  0
LINE
  5
1F0
330
37
100
AcDbEntity
  8
Sichtbare Kanten(TC_020513_DIN)
100
AcDbLine
 10
119.134635518959
 20
167.974774150226
 30
0.0
 11
120.4567706256914
 21
167.974774150226
 31
0.0
  0
LINE
  5
1F1
330
37
100
AcDbEntity
  8
Sichtbare Kanten(TC_020513_DIN)
100
AcDbLine
 10
134.8345575512091
 20
169.2406127814303
 30
0.0
 11
134.8345575512091
 21
167.1933930968316
 31
0.0
  0
LINE
  5
1F2
330
37
100
AcDbEntity
  8
Sichtbare Kanten(TC_020513_DIN)
100
AcDbLine
 10
133.4345575512091
 20
167.1933930968316
 30
0.0
 11
133.4345575512091
 21
169.2406127814303
 31
0.0
  0
LINE
  5
1F3
330
37
100
AcDbEntity
  8
Sichtbare Kanten(TC_020513_DIN)
100
AcDbLine
 10
134.8345575512091
 20
156.7581368476353
 30
0.0
 11
134.8345575512091
 21
152.789301275733
 31
0.0
  0
LINE
  5
1F4
330
37
100
AcDbEntity
  8
Sichtbare Kanten(TC_020513_DIN)
100
AcDbLine
 10
134.8345575512091
 20
152.789301275733
 30
0.0
 11
134.8345575512091
 21
152.440729384014
 31
0.0
  0
LINE
  5
1F5
330
37
100
AcDbEntity
  8
Sichtbare Kanten(TC_020513_DIN)
100
AcDbLine
 10
134.8345575512091
 20
152.440729384014
 30
0.0
 11
134.8345575512091
 21
147.6127498279113
 31
0.0
  0
LINE
  5
1F6
330
37
100
AcDbEntity
  8
Sichtbare Kanten(TC_020513_DIN)
100
AcDbLine
 10
134.8345575512091
 20
139.3971515126402
 30
0.0
 11
134.8345575512091
 21
147.6127498279113
 31
0.0
  0
LINE
  5
1F7
330
37
100
AcDbEntity
  8
Sichtbare Kanten(TC_020513_DIN)
100
AcDbLine
 10
134.8345575512091
 20
139.3971515126402
 30
0.0
 11
134.8345575512091
 21
139.2594965976328
 31
0.0
  0
LINE
  5
1F8
330
37
100
AcDbEntity
  8
Sichtbare Kanten(TC_020513_DIN)
100
AcDbLine
 10
134.8345575512091
 20
169.2406127814303
 30
0.0
 11
134.8345575512091
 21
174.3971515126402
 31
0.0
  0
LINE
  5
1F9
330
37
100
AcDbEntity
  8
Sichtbare Kanten(TC_020513_DIN)
100
AcDbLine
 10
133.4345575512091
 20
174.3971515126402
 30
0.0
 11
133.4345575512091
 21
169.2406127814303
 31
0.0
  0
LINE
  5
1FA
330
37
100
AcDbEntity
  8
Sichtbare Kanten(TC_020513_DIN)
100
AcDbLine
 10
133.4345575512091
 20
139.2594965976328
 30
0.0
 11
133.4345575512091
 21
139.3971515126402
 31
0.0
  0
LINE
  5
1FB
330
37
100
AcDbEntity
  8
Sichtbare Kanten(TC_020513_DIN)
100
AcDbLine
 10
133.4345575512091
 20
147.6127498279113
 30
0.0
 11
133.4345575512091
 21
139.3971515126402
 31
0.0
  0
LINE
  5
1FC
330
37
100
AcDbEntity
  8
Sichtbare Kanten(TC_020513_DIN)
100
AcDbLine
 10
133.4345575512091
 20
147.6127498279113
 30
0.0
 11
133.4345575512091
 21
152.440729384014
 31
0.0
  0
LINE
  5
1FD
330
37
100
AcDbEntity
  8
Sichtbare Kanten(TC_020513_DIN)
100
AcDbLine
 10
133.4345575512091
 20
152.440729384014
 30
0.0
 11
133.4345575512091
 21
152.789301275733
 31
0.0
  0
LINE
  5
1FE
330
37
100
AcDbEntity
  8
Sichtbare Kanten(TC_020513_DIN)
100
AcDbLine
 10
133.4345575512091
 20
152.789301275733
 30
0.0
 11
133.4345575512091
 21
156.7581368476353
 31
0.0
  0
LINE
  5
1FF
330
37
100
AcDbEntity
  8
Sichtbare Kanten(TC_020513_DIN)
100
AcDbLine
 10
134.8345575512091
 20
139.3971515126402
 30
0.0
 11
133.4345575512091
 21
139.3971515126402
 31
0.0
  0
LINE
  5
200
330
37
100
AcDbEntity
  8
Sichtbare Kanten(TC_020513_DIN)
100
AcDbLine
 10
134.8345575512091
 20
174.3971515126402
 30
0.0
 11
133.4345575512091
 21
174.3971515126402
 31
0.0
  0
LINE
  5
201
330
37
100
AcDbEntity
  8
Sichtbare Kanten(TC_020513_DIN)
100
AcDbLine
 10
134.9345575512091
 20
139.1594965976328
 30
0.0
 11
135.1685461226249
 21
139.1594965976328
 31
0.0
  0
LINE
  5
202
330
37
100
AcDbEntity
  8
Sichtbare Kanten(TC_020513_DIN)
100
AcDbLine
 10
136.8345575512091
 20
139.1594965976328
 30
0.0
 11
137.3722124662166
 21
139.1594965976328
 31
0.0
  0
LINE
  5
203
330
37
100
AcDbEntity
  8
Sichtbare Kanten(TC_020513_DIN)
100
AcDbLine
 10
137.8722124662166
 20
139.1594965976328
 30
0.0
 11
137.3722124662166
 21
139.1594965976328
 31
0.0
  0
LINE
  5
204
330
37
100
AcDbEntity
  8
Sichtbare Kanten(TC_020513_DIN)
100
AcDbLine
 10
137.3722124662166
 20
137.7594965976328
 30
0.0
 11
136.8345575512091
 21
137.7594965976328
 31
0.0
  0
LINE
  5
205
330
37
100
AcDbEntity
  8
Sichtbare Kanten(TC_020513_DIN)
100
AcDbLine
 10
137.3722124662166
 20
137.7594965976328
 30
0.0
 11
137.8722124662166
 21
137.7594965976328
 31
0.0
  0
LINE
  5
206
330
37
100
AcDbEntity
  8
Sichtbare Kanten(TC_020513_DIN)
100
AcDbLine
 10
137.8722124662166
 20
139.1594965976328
 30
0.0
 11
137.8722124662166
 21
137.7594965976328
 31
0.0
  0
LINE
  5
207
330
37
100
AcDbEntity
  8
Sichtbare Kanten(TC_020513_DIN)
100
AcDbLine
 10
121.7223399067346
 20
154.0146286862639
 30
0.0
 11
120.0937942539326
 21
148.5062575160148
 31
0.0
  0
ELLIPSE
  5
208
330
37
100
AcDbEntity
  8
Sichtbare Kanten(TC_020513_DIN)
100
AcDbEllipse
 10
118.1619426013545
 20
148.9753969480344
 30
0.0
 11
2.0
 21
0.0000000000000083
 31
0.0
210
0.0
220
0.0
230
1.0
 40
0.9063077870366488
 41
4.712388980384677
 42
6.021385919380432
  0
ARC
  5
209
330
37
100
AcDbEntity
  8
Sichtbare Kanten(TC_020513_DIN)
100
AcDbCircle
 10
47.60119485379989
 20
166.2581368476353
 30
0.0
 40
1.500000000000007
100
AcDbArc
 50
270.0
 51
313.7601210290164
  0
LINE
  5
20A
330
37
100
AcDbEntity
  8
Sichtbare Kanten(TC_020513_DIN)
100
AcDbLine
 10
42.71200943246445
 20
164.7581368476353
 30
0.0
 11
47.6011948537999
 21
164.7581368476353
 31
0.0
  0
ARC
  5
20B
330
37
100
AcDbEntity
  8
Sichtbare Kanten(TC_020513_DIN)
100
AcDbCircle
 10
42.71200943246445
 20
165.7581368476353
 30
0.0
 40
1.000000000000002
100
AcDbArc
 50
220.0000000000007
 51
270.0000000000005
  0
LINE
  5
20C
330
37
100
AcDbEntity
  8
Sichtbare Kanten(TC_020513_DIN)
100
AcDbLine
 10
40.86723929691888
 20
166.4009244573218
 30
0.0
 11
41.94596498934547
 21
165.1153492379487
 31
0.0
  0
ARC
  5
20D
330
37
100
AcDbEntity
  8
Sichtbare Kanten(TC_020513_DIN)
100
AcDbCircle
 10
40.10119485379989
 20
165.7581368476353
 30
0.0
 40
1.000000000000016
100
AcDbArc
 50
40.00000000000006
 51
89.99999999999948
  0
LINE
  5
20E
330
37
100
AcDbEntity
  8
Sichtbare Kanten(TC_020513_DIN)
100
AcDbLine
 10
38.13455755120916
 20
166.7581368476353
 30
0.0
 11
40.10119485379989
 21
166.7581368476353
 31
0.0
  0
LINE
  5
20F
330
37
100
AcDbEntity
  8
Sichtbare Kanten(TC_020513_DIN)
100
AcDbLine
 10
47.6011948537999
 20
156.7581368476353
 30
0.0
 11
38.13455755120916
 21
156.7581368476353
 31
0.0
  0
ARC
  5
210
330
37
100
AcDbEntity
  8
Sichtbare Kanten(TC_020513_DIN)
100
AcDbCircle
 10
47.60119485379989
 20
156.5081368476353
 30
0.0
 40
0.2500000000000089
100
AcDbArc
 50
15.0000000000025
 51
90.0
  0
LINE
  5
211
330
37
100
AcDbEntity
  8
Sichtbare Kanten(TC_020513_DIN)
100
AcDbLine
 10
48.21107477563012
 20
155.1979598191378
 30
0.0
 11
47.84267631037217
 21
156.5728416089109
 31
0.0
  0
LINE
  5
212
330
37
100
AcDbEntity
  8
Sichtbare Kanten(TC_020513_DIN)
100
AcDbLine
 10
35.33455755120917
 20
139.3971515126402
 30
0.0
 11
35.33455755120917
 21
139.2594965976328
 31
0.0
  0
LINE
  5
213
330
37
100
AcDbEntity
  8
Sichtbare Kanten(TC_020513_DIN)
100
AcDbLine
 10
35.33455755120917
 20
139.3971515126402
 30
0.0
 11
35.33455755120917
 21
147.6127498279113
 31
0.0
  0
LINE
  5
214
330
37
100
AcDbEntity
  8
Sichtbare Kanten(TC_020513_DIN)
100
AcDbLine
 10
35.33455755120917
 20
152.440729384014
 30
0.0
 11
35.33455755120917
 21
147.6127498279113
 31
0.0
  0
LINE
  5
215
330
37
100
AcDbEntity
  8
Sichtbare Kanten(TC_020513_DIN)
100
AcDbLine
 10
35.33455755120917
 20
152.789301275733
 30
0.0
 11
35.33455755120917
 21
152.440729384014
 31
0.0
  0
LINE
  5
216
330
37
100
AcDbEntity
  8
Sichtbare Kanten(TC_020513_DIN)
100
AcDbLine
 10
35.33455755120917
 20
156.7581368476353
 30
0.0
 11
35.33455755120917
 21
152.789301275733
 31
0.0
  0
LINE
  5
217
330
37
100
AcDbEntity
  8
Sichtbare Kanten(TC_020513_DIN)
100
AcDbLine
 10
35.33455755120917
 20
169.2406127814303
 30
0.0
 11
35.33455755120917
 21
167.1933930968316
 31
0.0
  0
LINE
  5
218
330
37
100
AcDbEntity
  8
Sichtbare Kanten(TC_020513_DIN)
100
AcDbLine
 10
35.33455755120917
 20
169.2406127814303
 30
0.0
 11
35.33455755120917
 21
174.3971515126402
 31
0.0
  0
LINE
  5
219
330
37
100
AcDbEntity
  8
Sichtbare Kanten(TC_020513_DIN)
100
AcDbLine
 10
36.73455755120917
 20
174.3971515126402
 30
0.0
 11
36.73455755120917
 21
169.2406127814303
 31
0.0
  0
LINE
  5
21A
330
37
100
AcDbEntity
  8
Sichtbare Kanten(TC_020513_DIN)
100
AcDbLine
 10
36.73455755120917
 20
167.1933930968316
 30
0.0
 11
36.73455755120917
 21
169.2406127814303
 31
0.0
  0
LINE
  5
21B
330
37
100
AcDbEntity
  8
Sichtbare Kanten(TC_020513_DIN)
100
AcDbLine
 10
36.73455755120917
 20
152.789301275733
 30
0.0
 11
36.73455755120917
 21
156.7581368476353
 31
0.0
  0
LINE
  5
21C
330
37
100
AcDbEntity
  8
Sichtbare Kanten(TC_020513_DIN)
100
AcDbLine
 10
36.73455755120917
 20
152.440729384014
 30
0.0
 11
36.73455755120917
 21
152.789301275733
 31
0.0
  0
LINE
  5
21D
330
37
100
AcDbEntity
  8
Sichtbare Kanten(TC_020513_DIN)
100
AcDbLine
 10
36.73455755120917
 20
147.6127498279113
 30
0.0
 11
36.73455755120917
 21
152.440729384014
 31
0.0
  0
LINE
  5
21E
330
37
100
AcDbEntity
  8
Sichtbare Kanten(TC_020513_DIN)
100
AcDbLine
 10
36.73455755120917
 20
147.6127498279113
 30
0.0
 11
36.73455755120917
 21
139.3971515126402
 31
0.0
  0
LINE
  5
21F
330
37
100
AcDbEntity
  8
Sichtbare Kanten(TC_020513_DIN)
100
AcDbLine
 10
36.73455755120917
 20
139.2594965976328
 30
0.0
 11
36.73455755120917
 21
139.3971515126402
 31
0.0
  0
LINE
  5
220
330
37
100
AcDbEntity
  8
Sichtbare Kanten(TC_020513_DIN)
100
AcDbLine
 10
35.33455755120917
 20
139.3971515126402
 30
0.0
 11
36.73455755120917
 21
139.3971515126402
 31
0.0
  0
LINE
  5
221
330
37
100
AcDbEntity
  8
Sichtbare Kanten(TC_020513_DIN)
100
AcDbLine
 10
35.33455755120917
 20
174.3971515126402
 30
0.0
 11
36.73455755120917
 21
174.3971515126402
 31
0.0
  0
LINE
  5
222
330
37
100
AcDbEntity
  8
Sichtbare Kanten(TC_020513_DIN)
100
AcDbLine
 10
51.03447958345935
 20
167.974774150226
 30
0.0
 11
52.96633123603749
 21
167.974774150226
 31
0.0
  0
LINE
  5
223
330
37
100
AcDbEntity
  8
Sichtbare Kanten(TC_020513_DIN)
100
AcDbLine
 10
52.96633123603749
 20
166.574774150226
 30
0.0
 11
51.03447958345936
 21
166.574774150226
 31
0.0
  0
LINE
  5
224
330
37
100
AcDbEntity
  8
Sichtbare Kanten(TC_020513_DIN)
100
AcDbLine
 10
49.71234447672698
 20
166.574774150226
 30
0.0
 11
51.03447958345937
 21
166.574774150226
 31
0.0
  0
LINE
  5
225
330
37
100
AcDbEntity
  8
Sichtbare Kanten(TC_020513_DIN)
100
AcDbLine
 10
51.03447958345937
 20
167.974774150226
 30
0.0
 11
49.71234447672697
 21
167.974774150226
 31
0.0
  0
LINE
  5
226
330
37
100
AcDbEntity
  8
Sichtbare Kanten(TC_020513_DIN)
100
AcDbLine
 10
35.23455755120917
 20
139.1594965976328
 30
0.0
 11
35.00056897979336
 21
139.1594965976328
 31
0.0
  0
LINE
  5
227
330
37
100
AcDbEntity
  8
Sichtbare Kanten(TC_020513_DIN)
100
AcDbLine
 10
33.33455755120917
 20
139.1594965976328
 30
0.0
 11
32.79690263620174
 21
139.1594965976328
 31
0.0
  0
LINE
  5
228
330
37
100
AcDbEntity
  8
Sichtbare Kanten(TC_020513_DIN)
100
AcDbLine
 10
32.79690263620174
 20
137.7594965976328
 30
0.0
 11
33.33455755120917
 21
137.7594965976328
 31
0.0
  0
LINE
  5
229
330
37
100
AcDbEntity
  8
Sichtbare Kanten(TC_020513_DIN)
100
AcDbLine
 10
32.79690263620174
 20
137.7594965976328
 30
0.0
 11
32.29690263620172
 21
137.7594965976328
 31
0.0
  0
LINE
  5
22A
330
37
100
AcDbEntity
  8
Sichtbare Kanten(TC_020513_DIN)
100
AcDbLine
 10
32.29690263620172
 20
139.1594965976328
 30
0.0
 11
32.79690263620174
 21
139.1594965976328
 31
0.0
  0
LINE
  5
22B
330
37
100
AcDbEntity
  8
Sichtbare Kanten(TC_020513_DIN)
100
AcDbLine
 10
32.29690263620174
 20
139.1594965976328
 30
0.0
 11
32.29690263620174
 21
137.7594965976328
 31
0.0
  0
ELLIPSE
  5
22C
330
37
100
AcDbEntity
  8
Sichtbare Kanten(TC_020513_DIN)
100
AcDbEllipse
 10
52.00717250106379
 20
148.9753969480344
 30
0.0
 11
-2.000000000000001
 21
0.0000000000000154
 31
0.0
210
0.0
220
0.0
230
1.0
 40
0.9063077870366488
 41
0.2617993877991589
 42
1.570796326794903
  0
ELLIPSE
  5
22D
330
37
100
AcDbEntity
  8
Sichtbare Kanten(TC_020513_DIN)
100
AcDbEllipse
 10
52.00717250106379
 20
149.5670625144713
 30
0.0
 11
-1.999999999999999
 21
0.0000000000000012
 31
0.0
210
0.0
220
0.0
230
1.0
 40
0.9063077870366489
 41
0.2617993877991509
 42
1.570796326794897
  0
LINE
  5
22E
330
37
100
AcDbEntity
  8
Sichtbare Kanten(TC_020513_DIN)
100
AcDbLine
 10
48.44677519568366
 20
154.0146286862639
 30
0.0
 11
50.07532084848566
 21
148.5062575160148
 31
0.0
  0
LINE
  5
22F
330
37
100
AcDbEntity
  8
Sichtbare Kanten(TC_020513_DIN)
100
AcDbLine
 10
50.07532084848566
 20
149.0979230824517
 30
0.0
 11
48.44677519568366
 21
154.6062942527008
 31
0.0
  0
LINE
  5
230
330
37
100
AcDbEntity
  8
Sichtbare Kanten(TC_020513_DIN)
100
AcDbLine
 10
117.2027838663808
 20
166.574774150226
 30
0.0
 11
52.96633123603749
 21
166.574774150226
 31
0.0
  0
LINE
  5
231
330
37
100
AcDbEntity
  8
Sichtbare Kanten(TC_020513_DIN)
100
AcDbLine
 10
117.2027838663808
 20
167.974774150226
 30
0.0
 11
52.96633123603749
 21
167.974774150226
 31
0.0
  0
LINE
  5
232
330
37
100
AcDbEntity
  8
Sichtbare Kanten(TC_020513_DIN)
100
AcDbLine
 10
52.00717250106379
 20
147.754446940398
 30
0.0
 11
118.1619426013545
 21
147.754446940398
 31
0.0
  0
LINE
  5
233
330
37
100
AcDbEntity
  8
Sichtbare Kanten(TC_020513_DIN)
100
AcDbLine
 10
118.1619426013545
 20
147.1627813739611
 30
0.0
 11
52.00717250106379
 21
147.1627813739611
 31
0.0
  0
POLYLINE
  5
234
330
37
100
AcDbEntity
  8
Sichtbare Kanten(TC_020513_DIN)
100
AcDb2dPolyline
 66
     1
 10
0.0
 20
0.0
 30
0.0
 70
   128
  0
VERTEX
  5
235
330
234
100
AcDbEntity
  8
Sichtbare Kanten(TC_020513_DIN)
100
AcDbVertex
100
AcDb2dVertex
 10
48.44677450067205
 20
154.0146285720045
 30
0.0
  0
VERTEX
  5
236
330
234
100
AcDbEntity
  8
Sichtbare Kanten(TC_020513_DIN)
100
AcDbVertex
100
AcDb2dVertex
 10
48.43694688684148
 20
154.0609929390127
 30
0.0
  0
VERTEX
  5
238
330
234
100
AcDbEntity
  8
Sichtbare Kanten(TC_020513_DIN)
100
AcDbVertex
100
AcDb2dVertex
 10
48.42712165719671
 20
154.1077140398199
 30
0.0
  0
VERTEX
  5
239
330
234
100
AcDbEntity
  8
Sichtbare Kanten(TC_020513_DIN)
100
AcDbVertex
100
AcDb2dVertex
 10
48.41730119592352
 20
154.1547802515204
 30
0.0
  0
VERTEX
  5
23A
330
234
100
AcDbEntity
  8
Sichtbare Kanten(TC_020513_DIN)
100
AcDbVertex
100
AcDb2dVertex
 10
48.40748311883611
 20
154.2021793551619
 30
0.0
  0
VERTEX
  5
23B
330
234
100
AcDbEntity
  8
Sichtbare Kanten(TC_020513_DIN)
100
AcDbVertex
100
AcDb2dVertex
 10
48.39766504174871
 20
154.2498997278387
 30
0.0
  0
VERTEX
  5
23C
330
234
100
AcDbEntity
  8
Sichtbare Kanten(TC_020513_DIN)
100
AcDbVertex
100
AcDb2dVertex
 10
48.3878493488471
 20
154.2979294486219
 30
0.0
  0
VERTEX
  5
23D
330
234
100
AcDbEntity
  8
Sichtbare Kanten(TC_020513_DIN)
100
AcDbVertex
100
AcDb2dVertex
 10
48.37803365594549
 20
154.3462560005362
 30
0.0
  0
VERTEX
  5
23E
330
234
100
AcDbEntity
  8
Sichtbare Kanten(TC_020513_DIN)
100
AcDbVertex
100
AcDb2dVertex
 10
48.36821796304388
 20
154.3948680586989
 30
0.0
  0
VERTEX
  5
23F
330
234
100
AcDbEntity
  8
Sichtbare Kanten(TC_020513_DIN)
100
AcDbVertex
100
AcDb2dVertex
 10
48.35839750177068
 20
154.4437534041578
 30
0.0
  0
VERTEX
  5
240
330
234
100
AcDbEntity
  8
Sichtbare Kanten(TC_020513_DIN)
100
AcDbVertex
100
AcDb2dVertex
 10
48.34857704049749
 20
154.4928998179609
 30
0.0
  0
VERTEX
  5
241
330
234
100
AcDbEntity
  8
Sichtbare Kanten(TC_020513_DIN)
100
AcDbVertex
100
AcDb2dVertex
 10
48.33875419503851
 20
154.5422953791792
 30
0.0
  0
VERTEX
  5
242
330
234
100
AcDbEntity
  8
Sichtbare Kanten(TC_020513_DIN)
100
AcDbVertex
100
AcDb2dVertex
 10
48.32892419702215
 20
154.5919287629301
 30
0.0
  0
VERTEX
  5
243
330
234
100
AcDbEntity
  8
Sichtbare Kanten(TC_020513_DIN)
100
AcDbVertex
100
AcDb2dVertex
 10
48.31909658319158
 20
154.6417630143339
 30
0.0
  0
VERTEX
  5
244
330
234
100
AcDbEntity
  8
Sichtbare Kanten(TC_020513_DIN)
100
AcDbVertex
100
AcDb2dVertex
 10
48.30927135354681
 20
154.691759986418
 30
0.0
  0
VERTEX
  5
245
330
234
100
AcDbEntity
  8
Sichtbare Kanten(TC_020513_DIN)
100
AcDbVertex
100
AcDb2dVertex
 10
48.29945089227361
 20
154.7419083542997
 30
0.0
  0
VERTEX
  5
246
330
234
100
AcDbEntity
  8
Sichtbare Kanten(TC_020513_DIN)
100
AcDbVertex
100
AcDb2dVertex
 10
48.28963281518621
 20
154.7921950049574
 30
0.0
  0
VERTEX
  5
247
330
234
100
AcDbEntity
  8
Sichtbare Kanten(TC_020513_DIN)
100
AcDbVertex
100
AcDb2dVertex
 10
48.2798171222846
 20
154.8426068253691
 30
0.0
  0
VERTEX
  5
248
330
234
100
AcDbEntity
  8
Sichtbare Kanten(TC_020513_DIN)
100
AcDbVertex
100
AcDb2dVertex
 10
48.2699990451972
 20
154.8931324906523
 30
0.0
  0
VERTEX
  5
249
330
234
100
AcDbEntity
  8
Sichtbare Kanten(TC_020513_DIN)
100
AcDbVertex
100
AcDb2dVertex
 10
48.26018335229559
 20
154.9437588877851
 30
0.0
  0
VERTEX
  5
24A
330
234
100
AcDbEntity
  8
Sichtbare Kanten(TC_020513_DIN)
100
AcDbVertex
100
AcDb2dVertex
 10
48.25036765939398
 20
154.9944729037459
 30
0.0
  0
VERTEX
  5
24B
330
234
100
AcDbEntity
  8
Sichtbare Kanten(TC_020513_DIN)
100
AcDbVertex
100
AcDb2dVertex
 10
48.24054719812078
 20
155.0452626176054
 30
0.0
  0
VERTEX
  5
24C
330
234
100
AcDbEntity
  8
Sichtbare Kanten(TC_020513_DIN)
100
AcDbVertex
100
AcDb2dVertex
 10
48.23072673684759
 20
155.0961155123884
 30
0.0
  0
VERTEX
  5
24D
330
234
100
AcDbEntity
  8
Sichtbare Kanten(TC_020513_DIN)
100
AcDbVertex
100
AcDb2dVertex
 10
48.2209038913886
 20
155.1470184750731
 30
0.0
  0
VERTEX
  5
24E
330
234
100
AcDbEntity
  8
Sichtbare Kanten(TC_020513_DIN)
100
AcDbVertex
100
AcDb2dVertex
 10
48.21107389337225
 20
155.1979595847303
 30
0.0
  0
SEQEND
  5
237
330
234
100
AcDbEntity
  8
Sichtbare Kanten(TC_020513_DIN)
  0
LINE
  5
24F
330
37
100
AcDbEntity
  8
Sichtbare Kanten(TC_020513_DIN)
100
AcDbLine
 10
48.44677519568366
 20
154.3459597751481
 30
0.0
 11
48.44677519568366
 21
154.0146286862639
 31
0.0
  0
LINE
  5
250
330
37
100
AcDbEntity
  8
Sichtbare Kanten(TC_020513_DIN)
100
AcDbLine
 10
48.44677519568366
 20
154.6062942527008
 30
0.0
 11
48.44677519568366
 21
154.3459597751481
 31
0.0
  0
POLYLINE
  5
251
330
37
100
AcDbEntity
  8
Sichtbare Kanten(TC_020513_DIN)
100
AcDb2dPolyline
 66
     1
 10
0.0
 20
0.0
 30
0.0
 70
   128
  0
VERTEX
  5
252
330
251
100
AcDbEntity
  8
Sichtbare Kanten(TC_020513_DIN)
100
AcDbVertex
100
AcDb2dVertex
 10
48.21107389337225
 20
155.1979595847303
 30
0.0
  0
VERTEX
  5
253
330
251
100
AcDbEntity
  8
Sichtbare Kanten(TC_020513_DIN)
100
AcDbVertex
100
AcDb2dVertex
 10
48.2209038913886
 20
155.1724893279249
 30
0.0
  0
VERTEX
  5
255
330
251
100
AcDbEntity
  8
Sichtbare Kanten(TC_020513_DIN)
100
AcDbVertex
100
AcDb2dVertex
 10
48.23072673684759
 20
155.1470375485594
 30
0.0
  0
VERTEX
  5
256
330
251
100
AcDbEntity
  8
Sichtbare Kanten(TC_020513_DIN)
100
AcDbVertex
100
AcDb2dVertex
 10
48.24054719812078
 20
155.1216113991911
 30
0.0
  0
VERTEX
  5
257
330
251
100
AcDbEntity
  8
Sichtbare Kanten(TC_020513_DIN)
100
AcDbVertex
100
AcDb2dVertex
 10
48.25036765939398
 20
155.0962162442381
 30
0.0
  0
VERTEX
  5
258
330
251
100
AcDbEntity
  8
Sichtbare Kanten(TC_020513_DIN)
100
AcDbVertex
100
AcDb2dVertex
 10
48.26018335229559
 20
155.0708592362578
 30
0.0
  0
VERTEX
  5
259
330
251
100
AcDbEntity
  8
Sichtbare Kanten(TC_020513_DIN)
100
AcDbVertex
100
AcDb2dVertex
 10
48.2699990451972
 20
155.0455463357145
 30
0.0
  0
VERTEX
  5
25A
330
251
100
AcDbEntity
  8
Sichtbare Kanten(TC_020513_DIN)
100
AcDbVertex
100
AcDb2dVertex
 10
48.2798171222846
 20
155.0202835030729
 30
0.0
  0
VERTEX
  5
25B
330
251
100
AcDbEntity
  8
Sichtbare Kanten(TC_020513_DIN)
100
AcDbVertex
100
AcDb2dVertex
 10
48.28963281518621
 20
154.9950772948439
 30
0.0
  0
VERTEX
  5
25C
330
251
100
AcDbEntity
  8
Sichtbare Kanten(TC_020513_DIN)
100
AcDbVertex
100
AcDb2dVertex
 10
48.29945089227361
 20
154.9699342675383
 30
0.0
  0
VERTEX
  5
25D
330
251
100
AcDbEntity
  8
Sichtbare Kanten(TC_020513_DIN)
100
AcDbVertex
100
AcDb2dVertex
 10
48.30927135354681
 20
154.9448597855741
 30
0.0
  0
VERTEX
  5
25E
330
251
100
AcDbEntity
  8
Sichtbare Kanten(TC_020513_DIN)
100
AcDbVertex
100
AcDb2dVertex
 10
48.31909658319158
 20
154.9198615975553
 30
0.0
  0
VERTEX
  5
25F
330
251
100
AcDbEntity
  8
Sichtbare Kanten(TC_020513_DIN)
100
AcDbVertex
100
AcDb2dVertex
 10
48.32892419702215
 20
154.8949444718535
 30
0.0
  0
VERTEX
  5
260
330
251
100
AcDbEntity
  8
Sichtbare Kanten(TC_020513_DIN)
100
AcDbVertex
100
AcDb2dVertex
 10
48.33875419503851
 20
154.8701274819548
 30
0.0
  0
VERTEX
  5
261
330
251
100
AcDbEntity
  8
Sichtbare Kanten(TC_020513_DIN)
100
AcDbVertex
100
AcDb2dVertex
 10
48.34857704049749
 20
154.8454297013456
 30
0.0
  0
VERTEX
  5
262
330
251
100
AcDbEntity
  8
Sichtbare Kanten(TC_020513_DIN)
100
AcDbVertex
100
AcDb2dVertex
 10
48.35839750177068
 20
154.8208564944441
 30
0.0
  0
VERTEX
  5
263
330
251
100
AcDbEntity
  8
Sichtbare Kanten(TC_020513_DIN)
100
AcDbVertex
100
AcDb2dVertex
 10
48.36821796304388
 20
154.7964138217146
 30
0.0
  0
VERTEX
  5
264
330
251
100
AcDbEntity
  8
Sichtbare Kanten(TC_020513_DIN)
100
AcDbVertex
100
AcDb2dVertex
 10
48.37803365594549
 20
154.7721076436216
 30
0.0
  0
VERTEX
  5
265
330
251
100
AcDbEntity
  8
Sichtbare Kanten(TC_020513_DIN)
100
AcDbVertex
100
AcDb2dVertex
 10
48.3878493488471
 20
154.7479445166761
 30
0.0
  0
VERTEX
  5
266
330
251
100
AcDbEntity
  8
Sichtbare Kanten(TC_020513_DIN)
100
AcDbVertex
100
AcDb2dVertex
 10
48.39766504174871
 20
154.7239298052961
 30
0.0
  0
VERTEX
  5
267
330
251
100
AcDbEntity
  8
Sichtbare Kanten(TC_020513_DIN)
100
AcDbVertex
100
AcDb2dVertex
 10
48.40748311883611
 20
154.7000694699461
 30
0.0
  0
VERTEX
  5
268
330
251
100
AcDbEntity
  8
Sichtbare Kanten(TC_020513_DIN)
100
AcDbVertex
100
AcDb2dVertex
 10
48.41730119592352
 20
154.676370067137
 30
0.0
  0
VERTEX
  5
269
330
251
100
AcDbEntity
  8
Sichtbare Kanten(TC_020513_DIN)
100
AcDbVertex
100
AcDb2dVertex
 10
48.42712165719671
 20
154.6528369612867
 30
0.0
  0
VERTEX
  5
26A
330
251
100
AcDbEntity
  8
Sichtbare Kanten(TC_020513_DIN)
100
AcDbVertex
100
AcDb2dVertex
 10
48.43694688684148
 20
154.6294761128599
 30
0.0
  0
VERTEX
  5
26B
330
251
100
AcDbEntity
  8
Sichtbare Kanten(TC_020513_DIN)
100
AcDbVertex
100
AcDb2dVertex
 10
48.44677450067205
 20
154.6062940783674
 30
0.0
  0
SEQEND
  5
254
330
251
100
AcDbEntity
  8
Sichtbare Kanten(TC_020513_DIN)
  0
ARC
  5
26C
330
37
100
AcDbEntity
  8
Sichtbare Kanten(TC_020513_DIN)
100
AcDbCircle
 10
35.23455755120917
 20
139.2594965976328
 30
0.0
 40
0.1000000000000045
100
AcDbArc
 50
270.0
 51
0.0
  0
ARC
  5
26D
330
37
100
AcDbEntity
  8
Sichtbare Kanten(TC_020513_DIN)
100
AcDbCircle
 10
35.23455755120914
 20
139.2594965976328
 30
0.0
 40
1.50000000000003
100
AcDbArc
 50
333.0858507981409
 51
0.0
  0
LINE
  5
26E
330
37
100
AcDbEntity
  8
Sichtbare Kanten(TC_020513_DIN)
100
AcDbLine
 10
35.33455755120917
 20
156.7581368476353
 30
0.0
 11
35.33455755120917
 21
167.1933930968316
 31
0.0
  0
POLYLINE
  5
26F
330
37
100
AcDbEntity
  8
Sichtbare Kanten(TC_020513_DIN)
100
AcDb2dPolyline
 66
     1
 10
0.0
 20
0.0
 30
0.0
 70
   128
  0
VERTEX
  5
270
330
26F
100
AcDbEntity
  8
Sichtbare Kanten(TC_020513_DIN)
100
AcDbVertex
100
AcDb2dVertex
 10
35.37657262689276
 20
166.9791317410643
 30
0.0
  0
VERTEX
  5
271
330
26F
100
AcDbEntity
  8
Sichtbare Kanten(TC_020513_DIN)
100
AcDbVertex
100
AcDb2dVertex
 10
35.37315370446844
 20
166.9880605168517
 30
0.0
  0
VERTEX
  5
273
330
26F
100
AcDbEntity
  8
Sichtbare Kanten(TC_020513_DIN)
100
AcDbVertex
100
AcDb2dVertex
 10
35.36987783319159
 20
166.9969881005461
 30
0.0
  0
VERTEX
  5
274
330
26F
100
AcDbEntity
  8
Sichtbare Kanten(TC_020513_DIN)
100
AcDbVertex
100
AcDb2dVertex
 10
35.36674501306219
 20
167.0059156842406
 30
0.0
  0
VERTEX
  5
275
330
26F
100
AcDbEntity
  8
Sichtbare Kanten(TC_020513_DIN)
100
AcDbVertex
100
AcDb2dVertex
 10
35.36376001245184
 20
167.014843267935
 30
0.0
  0
VERTEX
  5
276
330
26F
100
AcDbEntity
  8
Sichtbare Kanten(TC_020513_DIN)
100
AcDbVertex
100
AcDb2dVertex
 10
35.36091329461737
 20
167.0237696595366
 30
0.0
  0
VERTEX
  5
277
330
26F
100
AcDbEntity
  8
Sichtbare Kanten(TC_020513_DIN)
100
AcDbVertex
100
AcDb2dVertex
 10
35.35821916467352
 20
167.032697243231
 30
0.0
  0
VERTEX
  5
278
330
26F
100
AcDbEntity
  8
Sichtbare Kanten(TC_020513_DIN)
100
AcDbVertex
100
AcDb2dVertex
 10
35.35566331750555
 20
167.0416236348326
 30
0.0
  0
VERTEX
  5
279
330
26F
100
AcDbEntity
  8
Sichtbare Kanten(TC_020513_DIN)
100
AcDbVertex
100
AcDb2dVertex
 10
35.35326005822821
 20
167.0505512185271
 30
0.0
  0
VERTEX
  5
27A
330
26F
100
AcDbEntity
  8
Sichtbare Kanten(TC_020513_DIN)
100
AcDbVertex
100
AcDb2dVertex
 10
35.35099508172674
 20
167.0594776101286
 30
0.0
  0
VERTEX
  5
27B
330
26F
100
AcDbEntity
  8
Sichtbare Kanten(TC_020513_DIN)
100
AcDbVertex
100
AcDb2dVertex
 10
35.34887792474432
 20
167.0684051938231
 30
0.0
  0
VERTEX
  5
27C
330
26F
100
AcDbEntity
  8
Sichtbare Kanten(TC_020513_DIN)
100
AcDbVertex
100
AcDb2dVertex
 10
35.34690858728094
 20
167.0773339696104
 30
0.0
  0
VERTEX
  5
27D
330
26F
100
AcDbEntity
  8
Sichtbare Kanten(TC_020513_DIN)
100
AcDbVertex
100
AcDb2dVertex
 10
35.34508230096502
 20
167.0862627453978
 30
0.0
  0
VERTEX
  5
27E
330
26F
100
AcDbEntity
  8
Sichtbare Kanten(TC_020513_DIN)
100
AcDbVertex
100
AcDb2dVertex
 10
35.34339906579657
 20
167.0951903290923
 30
0.0
  0
VERTEX
  5
27F
330
26F
100
AcDbEntity
  8
Sichtbare Kanten(TC_020513_DIN)
100
AcDbVertex
100
AcDb2dVertex
 10
35.34186841851874
 20
167.1041191048796
 30
0.0
  0
VERTEX
  5
280
330
26F
100
AcDbEntity
  8
Sichtbare Kanten(TC_020513_DIN)
100
AcDbVertex
100
AcDb2dVertex
 10
35.34048082238836
 20
167.1130466885741
 30
0.0
  0
VERTEX
  5
281
330
26F
100
AcDbEntity
  8
Sichtbare Kanten(TC_020513_DIN)
100
AcDbVertex
100
AcDb2dVertex
 10
35.33923627740545
 20
167.1219742722685
 30
0.0
  0
VERTEX
  5
282
330
26F
100
AcDbEntity
  8
Sichtbare Kanten(TC_020513_DIN)
100
AcDbVertex
100
AcDb2dVertex
 10
35.33813955194159
 20
167.1309006638701
 30
0.0
  0
VERTEX
  5
283
330
26F
100
AcDbEntity
  8
Sichtbare Kanten(TC_020513_DIN)
100
AcDbVertex
100
AcDb2dVertex
 10
35.33719064599676
 20
167.1398282475645
 30
0.0
  0
VERTEX
  5
284
330
26F
100
AcDbEntity
  8
Sichtbare Kanten(TC_020513_DIN)
100
AcDbVertex
100
AcDb2dVertex
 10
35.3363847911994
 20
167.1487546391661
 30
0.0
  0
VERTEX
  5
285
330
26F
100
AcDbEntity
  8
Sichtbare Kanten(TC_020513_DIN)
100
AcDbVertex
100
AcDb2dVertex
 10
35.33572675592108
 20
167.1576810307677
 30
0.0
  0
VERTEX
  5
286
330
26F
100
AcDbEntity
  8
Sichtbare Kanten(TC_020513_DIN)
100
AcDbVertex
100
AcDb2dVertex
 10
35.3352165401618
 20
167.1666086144621
 30
0.0
  0
VERTEX
  5
287
330
26F
100
AcDbEntity
  8
Sichtbare Kanten(TC_020513_DIN)
100
AcDbVertex
100
AcDb2dVertex
 10
35.33484937554999
 20
167.1755361981566
 30
0.0
  0
VERTEX
  5
288
330
26F
100
AcDbEntity
  8
Sichtbare Kanten(TC_020513_DIN)
100
AcDbVertex
100
AcDb2dVertex
 10
35.33463003045721
 20
167.1844649739439
 30
0.0
  0
VERTEX
  5
289
330
26F
100
AcDbEntity
  8
Sichtbare Kanten(TC_020513_DIN)
100
AcDbVertex
100
AcDb2dVertex
 10
35.33455850488348
 20
167.1933925576384
 30
0.0
  0
SEQEND
  5
272
330
26F
100
AcDbEntity
  8
Sichtbare Kanten(TC_020513_DIN)
  0
POLYLINE
  5
28A
330
37
100
AcDbEntity
  8
Sichtbare Kanten(TC_020513_DIN)
100
AcDb2dPolyline
 66
     1
 10
0.0
 20
0.0
 30
0.0
 70
   128
  0
VERTEX
  5
28B
330
28A
100
AcDbEntity
  8
Sichtbare Kanten(TC_020513_DIN)
100
AcDbVertex
100
AcDb2dVertex
 10
36.73455716973944
 20
167.1933925576384
 30
0.0
  0
VERTEX
  5
28C
330
28A
100
AcDbEntity
  8
Sichtbare Kanten(TC_020513_DIN)
100
AcDbVertex
100
AcDb2dVertex
 10
36.73459531671209
 20
167.1844649739439
 30
0.0
  0
VERTEX
  5
28E
330
28A
100
AcDbEntity
  8
Sichtbare Kanten(TC_020513_DIN)
100
AcDbVertex
100
AcDb2dVertex
 10
36.73470498925848
 20
167.1755361981566
 30
0.0
  0
VERTEX
  5
28F
330
28A
100
AcDbEntity
  8
Sichtbare Kanten(TC_020513_DIN)
100
AcDbVertex
100
AcDb2dVertex
 10
36.7348861873786
 20
167.1666086144621
 30
0.0
  0
VERTEX
  5
290
330
28A
100
AcDbEntity
  8
Sichtbare Kanten(TC_020513_DIN)
100
AcDbVertex
100
AcDb2dVertex
 10
36.73514367944403
 20
167.1576810307677
 30
0.0
  0
VERTEX
  5
291
330
28A
100
AcDbEntity
  8
Sichtbare Kanten(TC_020513_DIN)
100
AcDbVertex
100
AcDb2dVertex
 10
36.73547269708319
 20
167.1487546391661
 30
0.0
  0
VERTEX
  5
292
330
28A
100
AcDbEntity
  8
Sichtbare Kanten(TC_020513_DIN)
100
AcDbVertex
100
AcDb2dVertex
 10
36.73587324029608
 20
167.1398282475645
 30
0.0
  0
VERTEX
  5
293
330
28A
100
AcDbEntity
  8
Sichtbare Kanten(TC_020513_DIN)
100
AcDbVertex
100
AcDb2dVertex
 10
36.73635007745428
 20
167.1309006638701
 30
0.0
  0
VERTEX
  5
294
330
28A
100
AcDbEntity
  8
Sichtbare Kanten(TC_020513_DIN)
100
AcDbVertex
100
AcDb2dVertex
 10
36.73689844018622
 20
167.1219742722685
 30
0.0
  0
VERTEX
  5
295
330
28A
100
AcDbEntity
  8
Sichtbare Kanten(TC_020513_DIN)
100
AcDbVertex
100
AcDb2dVertex
 10
36.73751832849188
 20
167.1130466885741
 30
0.0
  0
VERTEX
  5
296
330
28A
100
AcDbEntity
  8
Sichtbare Kanten(TC_020513_DIN)
100
AcDbVertex
100
AcDb2dVertex
 10
36.73821451074286
 20
167.1041191048796
 30
0.0
  0
VERTEX
  5
297
330
28A
100
AcDbEntity
  8
Sichtbare Kanten(TC_020513_DIN)
100
AcDbVertex
100
AcDb2dVertex
 10
36.73897745019598
 20
167.0951903290923
 30
0.0
  0
VERTEX
  5
298
330
28A
100
AcDbEntity
  8
Sichtbare Kanten(TC_020513_DIN)
100
AcDbVertex
100
AcDb2dVertex
 10
36.739821451966
 20
167.0862627453978
 30
0.0
  0
VERTEX
  5
299
330
28A
100
AcDbEntity
  8
Sichtbare Kanten(TC_020513_DIN)
100
AcDbVertex
100
AcDb2dVertex
 10
36.74073221093817
 20
167.0773339696104
 30
0.0
  0
VERTEX
  5
29A
330
28A
100
AcDbEntity
  8
Sichtbare Kanten(TC_020513_DIN)
100
AcDbVertex
100
AcDb2dVertex
 10
36.74171926385565
 20
167.0684051938231
 30
0.0
  0
VERTEX
  5
29B
330
28A
100
AcDbEntity
  8
Sichtbare Kanten(TC_020513_DIN)
100
AcDbVertex
100
AcDb2dVertex
 10
36.74277784234686
 20
167.0594776101286
 30
0.0
  0
VERTEX
  5
29C
330
28A
100
AcDbEntity
  8
Sichtbare Kanten(TC_020513_DIN)
100
AcDbVertex
100
AcDb2dVertex
 10
36.7439079464118
 20
167.0505512185271
 30
0.0
  0
VERTEX
  5
29D
330
28A
100
AcDbEntity
  8
Sichtbare Kanten(TC_020513_DIN)
100
AcDbVertex
100
AcDb2dVertex
 10
36.74510957605047
 20
167.0416236348326
 30
0.0
  0
VERTEX
  5
29E
330
28A
100
AcDbEntity
  8
Sichtbare Kanten(TC_020513_DIN)
100
AcDbVertex
100
AcDb2dVertex
 10
36.74638749963446
 20
167.032697243231
 30
0.0
  0
VERTEX
  5
29F
330
28A
100
AcDbEntity
  8
Sichtbare Kanten(TC_020513_DIN)
100
AcDbVertex
100
AcDb2dVertex
 10
36.74773694879217
 20
167.0237696595366
 30
0.0
  0
VERTEX
  5
2A0
330
28A
100
AcDbEntity
  8
Sichtbare Kanten(TC_020513_DIN)
100
AcDbVertex
100
AcDb2dVertex
 10
36.74915792352362
 20
167.014843267935
 30
0.0
  0
VERTEX
  5
2A1
330
28A
100
AcDbEntity
  8
Sichtbare Kanten(TC_020513_DIN)
100
AcDbVertex
100
AcDb2dVertex
 10
36.75065042382879
 20
167.0059156842406
 30
0.0
  0
VERTEX
  5
2A2
330
28A
100
AcDbEntity
  8
Sichtbare Kanten(TC_020513_DIN)
100
AcDbVertex
100
AcDb2dVertex
 10
36.75221921807928
 20
166.9969881005461
 30
0.0
  0
VERTEX
  5
2A3
330
28A
100
AcDbEntity
  8
Sichtbare Kanten(TC_020513_DIN)
100
AcDbVertex
100
AcDb2dVertex
 10
36.75385476953192
 20
166.9880605168517
 30
0.0
  0
VERTEX
  5
2A4
330
28A
100
AcDbEntity
  8
Sichtbare Kanten(TC_020513_DIN)
100
AcDbVertex
100
AcDb2dVertex
 10
36.75556661492987
 20
166.9791317410643
 30
0.0
  0
SEQEND
  5
28D
330
28A
100
AcDbEntity
  8
Sichtbare Kanten(TC_020513_DIN)
  0
LINE
  5
2A5
330
37
100
AcDbEntity
  8
Sichtbare Kanten(TC_020513_DIN)
100
AcDbLine
 10
36.11855563842896
 20
167.1933930968316
 30
0.0
 11
36.73455755120917
 21
167.1933930968316
 31
0.0
  0
LINE
  5
2A6
330
37
100
AcDbEntity
  8
Sichtbare Kanten(TC_020513_DIN)
100
AcDbLine
 10
35.33455755120917
 20
167.1933930968316
 30
0.0
 11
36.11855563842896
 21
167.1933930968316
 31
0.0
  0
POLYLINE
  5
2A7
330
37
100
AcDbEntity
  8
Sichtbare Kanten(TC_020513_DIN)
100
AcDb2dPolyline
 66
     1
 10
0.0
 20
0.0
 30
0.0
 70
   128
  0
VERTEX
  5
2A8
330
2A7
100
AcDbEntity
  8
Sichtbare Kanten(TC_020513_DIN)
100
AcDbVertex
100
AcDb2dVertex
 10
35.76549531823797
 20
166.7581367917235
 30
0.0
  0
VERTEX
  5
2A9
330
2A7
100
AcDbEntity
  8
Sichtbare Kanten(TC_020513_DIN)
100
AcDbVertex
100
AcDb2dVertex
 10
35.73607923394842
 20
166.7586756177122
 30
0.0
  0
VERTEX
  5
2AB
330
2A7
100
AcDbEntity
  8
Sichtbare Kanten(TC_020513_DIN)
100
AcDbVertex
100
AcDb2dVertex
 10
35.70765973931952
 20
166.7602956719572
 30
0.0
  0
VERTEX
  5
2AC
330
2A7
100
AcDbEntity
  8
Sichtbare Kanten(TC_020513_DIN)
100
AcDbVertex
100
AcDb2dVertex
 10
35.68024160272284
 20
166.76300172283
 30
0.0
  0
VERTEX
  5
2AD
330
2A7
100
AcDbEntity
  8
Sichtbare Kanten(TC_020513_DIN)
100
AcDbVertex
100
AcDb2dVertex
 10
35.65384389764471
 20
166.7667985387022
 30
0.0
  0
VERTEX
  5
2AE
330
2A7
100
AcDbEntity
  8
Sichtbare Kanten(TC_020513_DIN)
100
AcDbVertex
100
AcDb2dVertex
 10
35.62846662408514
 20
166.7716885037596
 30
0.0
  0
VERTEX
  5
2AF
330
2A7
100
AcDbEntity
  8
Sichtbare Kanten(TC_020513_DIN)
100
AcDbVertex
100
AcDb2dVertex
 10
35.60412885553045
 20
166.7776775784666
 30
0.0
  0
VERTEX
  5
2B0
330
2A7
100
AcDbEntity
  8
Sichtbare Kanten(TC_020513_DIN)
100
AcDbVertex
100
AcDb2dVertex
 10
35.58083536035223
 20
166.784769339102
 30
0.0
  0
VERTEX
  5
2B1
330
2A7
100
AcDbEntity
  8
Sichtbare Kanten(TC_020513_DIN)
100
AcDbVertex
100
AcDb2dVertex
 10
35.55860044366522
 20
166.7929685540373
 30
0.0
  0
VERTEX
  5
2B2
330
2A7
100
AcDbEntity
  8
Sichtbare Kanten(TC_020513_DIN)
100
AcDbVertex
100
AcDb2dVertex
 10
35.537428873841
 20
166.8022787995512
 30
0.0
  0
VERTEX
  5
2B3
330
2A7
100
AcDbEntity
  8
Sichtbare Kanten(TC_020513_DIN)
100
AcDbVertex
100
AcDb2dVertex
 10
35.51734449273749
 20
166.8127000756438
 30
0.0
  0
VERTEX
  5
2B4
330
2A7
100
AcDbEntity
  8
Sichtbare Kanten(TC_020513_DIN)
100
AcDbVertex
100
AcDb2dVertex
 10
35.49875738031073
 20
166.8239820428069
 30
0.0
  0
VERTEX
  5
2B5
330
2A7
100
AcDbEntity
  8
Sichtbare Kanten(TC_020513_DIN)
100
AcDbVertex
100
AcDb2dVertex
 10
35.48180581933661
 20
166.8358958192046
 30
0.0
  0
VERTEX
  5
2B6
330
2A7
100
AcDbEntity
  8
Sichtbare Kanten(TC_020513_DIN)
100
AcDbVertex
100
AcDb2dVertex
 10
35.46641351586981
 20
166.8483055062468
 30
0.0
  0
VERTEX
  5
2B7
330
2A7
100
AcDbEntity
  8
Sichtbare Kanten(TC_020513_DIN)
100
AcDbVertex
100
AcDb2dVertex
 10
35.45248987085028
 20
166.8610775895293
 30
0.0
  0
VERTEX
  5
2B8
330
2A7
100
AcDbEntity
  8
Sichtbare Kanten(TC_020513_DIN)
100
AcDbVertex
100
AcDb2dVertex
 10
35.43996335870428
 20
166.8740773625548
 30
0.0
  0
VERTEX
  5
2B9
330
2A7
100
AcDbEntity
  8
Sichtbare Kanten(TC_020513_DIN)
100
AcDbVertex
100
AcDb2dVertex
 10
35.42874814874334
 20
166.8871701188261
 30
0.0
  0
VERTEX
  5
2BA
330
2A7
100
AcDbEntity
  8
Sichtbare Kanten(TC_020513_DIN)
100
AcDbVertex
100
AcDb2dVertex
 10
35.41876317865057
 20
166.9002223439391
 30
0.0
  0
VERTEX
  5
2BB
330
2A7
100
AcDbEntity
  8
Sichtbare Kanten(TC_020513_DIN)
100
AcDbVertex
100
AcDb2dVertex
 10
35.40993215448065
 20
166.9130981393034
 30
0.0
  0
VERTEX
  5
2BC
330
2A7
100
AcDbEntity
  8
Sichtbare Kanten(TC_020513_DIN)
100
AcDbVertex
100
AcDb2dVertex
 10
35.4021692455451
 20
166.925663990515
 30
0.0
  0
VERTEX
  5
2BD
330
2A7
100
AcDbEntity
  8
Sichtbare Kanten(TC_020513_DIN)
100
AcDbVertex
100
AcDb2dVertex
 10
35.39539815789862
 20
166.9377839989836
 30
0.0
  0
VERTEX
  5
2BE
330
2A7
100
AcDbEntity
  8
Sichtbare Kanten(TC_020513_DIN)
100
AcDbVertex
100
AcDb2dVertex
 10
35.38953306085272
 20
166.9493258423979
 30
0.0
  0
VERTEX
  5
2BF
330
2A7
100
AcDbEntity
  8
Sichtbare Kanten(TC_020513_DIN)
100
AcDbVertex
100
AcDb2dVertex
 10
35.38449289209051
 20
166.9601536221678
 30
0.0
  0
VERTEX
  5
2C0
330
2A7
100
AcDbEntity
  8
Sichtbare Kanten(TC_020513_DIN)
100
AcDbVertex
100
AcDb2dVertex
 10
35.38020135766668
 20
166.970133823889
 30
0.0
  0
VERTEX
  5
2C1
330
2A7
100
AcDbEntity
  8
Sichtbare Kanten(TC_020513_DIN)
100
AcDbVertex
100
AcDb2dVertex
 10
35.37657262689276
 20
166.9791317410643
 30
0.0
  0
SEQEND
  5
2AA
330
2A7
100
AcDbEntity
  8
Sichtbare Kanten(TC_020513_DIN)
  0
POLYLINE
  5
2C2
330
37
100
AcDbEntity
  8
Sichtbare Kanten(TC_020513_DIN)
100
AcDb2dPolyline
 66
     1
 10
0.0
 20
0.0
 30
0.0
 70
   128
  0
VERTEX
  5
2C3
330
2C2
100
AcDbEntity
  8
Sichtbare Kanten(TC_020513_DIN)
100
AcDbVertex
100
AcDb2dVertex
 10
36.75556661492987
 20
166.9791317410643
 30
0.0
  0
VERTEX
  5
2C4
330
2C2
100
AcDbEntity
  8
Sichtbare Kanten(TC_020513_DIN)
100
AcDbVertex
100
AcDb2dVertex
 10
36.75739290124579
 20
166.9700479932005
 30
0.0
  0
VERTEX
  5
2C6
330
2C2
100
AcDbEntity
  8
Sichtbare Kanten(TC_020513_DIN)
100
AcDbVertex
100
AcDb2dVertex
 10
36.75952913171454
 20
166.9600689835722
 30
0.0
  0
VERTEX
  5
2C7
330
2C2
100
AcDbEntity
  8
Sichtbare Kanten(TC_020513_DIN)
100
AcDbVertex
100
AcDb2dVertex
 10
36.76201822168036
 20
166.949313921469
 30
0.0
  0
VERTEX
  5
2C8
330
2C2
100
AcDbEntity
  8
Sichtbare Kanten(TC_020513_DIN)
100
AcDbVertex
100
AcDb2dVertex
 10
36.7648983181159
 20
166.9379067845518
 30
0.0
  0
VERTEX
  5
2C9
330
2C2
100
AcDbEntity
  8
Sichtbare Kanten(TC_020513_DIN)
100
AcDbVertex
100
AcDb2dVertex
 10
36.76820756799383
 20
166.9259679742033
 30
0.0
  0
VERTEX
  5
2CA
330
2C2
100
AcDbEntity
  8
Sichtbare Kanten(TC_020513_DIN)
100
AcDbVertex
100
AcDb2dVertex
 10
36.77199365502997
 20
166.9136190838988
 30
0.0
  0
VERTEX
  5
2CB
330
2C2
100
AcDbEntity
  8
Sichtbare Kanten(TC_020513_DIN)
100
AcDbVertex
100
AcDb2dVertex
 10
36.77629472619696
 20
166.9009828992064
 30
0.0
  0
VERTEX
  5
2CC
330
2C2
100
AcDbEntity
  8
Sichtbare Kanten(TC_020513_DIN)
100
AcDbVertex
100
AcDb2dVertex
 10
36.78114892846747
 20
166.8881798215086
 30
0.0
  0
VERTEX
  5
2CD
330
2C2
100
AcDbEntity
  8
Sichtbare Kanten(TC_020513_DIN)
100
AcDbVertex
100
AcDb2dVertex
 10
36.78659917718573
 20
166.8753326363737
 30
0.0
  0
VERTEX
  5
2CE
330
2C2
100
AcDbEntity
  8
Sichtbare Kanten(TC_020513_DIN)
100
AcDbVertex
100
AcDb2dVertex
 10
36.7926836193244
 20
166.8625629372771
 30
0.0
  0
VERTEX
  5
2CF
330
2C2
100
AcDbEntity
  8
Sichtbare Kanten(TC_020513_DIN)
100
AcDbVertex
100
AcDb2dVertex
 10
36.7994499385993
 20
166.8499923176939
 30
0.0
  0
VERTEX
  5
2D0
330
2C2
100
AcDbEntity
  8
Sichtbare Kanten(TC_020513_DIN)
100
AcDbVertex
100
AcDb2dVertex
 10
36.80692674523993
 20
166.8377423710997
 30
0.0
  0
VERTEX
  5
2D1
330
2C2
100
AcDbEntity
  8
Sichtbare Kanten(TC_020513_DIN)
100
AcDbVertex
100
AcDb2dVertex
 10
36.81516649133368
 20
166.8259346909697
 30
0.0
  0
VERTEX
  5
2D2
330
2C2
100
AcDbEntity
  8
Sichtbare Kanten(TC_020513_DIN)
100
AcDbVertex
100
AcDb2dVertex
 10
36.82420255548163
 20
166.8146920628722
 30
0.0
  0
VERTEX
  5
2D3
330
2C2
100
AcDbEntity
  8
Sichtbare Kanten(TC_020513_DIN)
100
AcDbVertex
100
AcDb2dVertex
 10
36.83401109582586
 20
166.8042076058562
 30
0.0
  0
VERTEX
  5
2D4
330
2C2
100
AcDbEntity
  8
Sichtbare Kanten(TC_020513_DIN)
100
AcDbVertex
100
AcDb2dVertex
 10
36.84443952447577
 20
166.7947304673369
 30
0.0
  0
VERTEX
  5
2D5
330
2C2
100
AcDbEntity
  8
Sichtbare Kanten(TC_020513_DIN)
100
AcDbVertex
100
AcDb2dVertex
 10
36.85549260980292
 20
166.7862916417296
 30
0.0
  0
VERTEX
  5
2D6
330
2C2
100
AcDbEntity
  8
Sichtbare Kanten(TC_020513_DIN)
100
AcDbVertex
100
AcDb2dVertex
 10
36.86717988855047
 20
166.7789113946135
 30
0.0
  0
VERTEX
  5
2D7
330
2C2
100
AcDbEntity
  8
Sichtbare Kanten(TC_020513_DIN)
100
AcDbVertex
100
AcDb2dVertex
 10
36.87950612909002
 20
166.7726111836607
 30
0.0
  0
VERTEX
  5
2D8
330
2C2
100
AcDbEntity
  8
Sichtbare Kanten(TC_020513_DIN)
100
AcDbVertex
100
AcDb2dVertex
 10
36.8924617946784
 20
166.7674208111937
 30
0.0
  0
VERTEX
  5
2D9
330
2C2
100
AcDbEntity
  8
Sichtbare Kanten(TC_020513_DIN)
100
AcDbVertex
100
AcDb2dVertex
 10
36.90599920159979
 20
166.7633700795348
 30
0.0
  0
VERTEX
  5
2DA
330
2C2
100
AcDbEntity
  8
Sichtbare Kanten(TC_020513_DIN)
100
AcDbVertex
100
AcDb2dVertex
 10
36.92010881311102
 20
166.7604673333342
 30
0.0
  0
VERTEX
  5
2DB
330
2C2
100
AcDbEntity
  8
Sichtbare Kanten(TC_020513_DIN)
100
AcDbVertex
100
AcDb2dVertex
 10
36.93478586084051
 20
166.7587209172423
 30
0.0
  0
VERTEX
  5
2DC
330
2C2
100
AcDbEntity
  8
Sichtbare Kanten(TC_020513_DIN)
100
AcDbVertex
100
AcDb2dVertex
 10
36.95002557641668
 20
166.7581367917235
 30
0.0
  0
SEQEND
  5
2C5
330
2C2
100
AcDbEntity
  8
Sichtbare Kanten(TC_020513_DIN)
  0
LINE
  5
2DD
330
37
100
AcDbEntity
  8
Sichtbare Kanten(TC_020513_DIN)
100
AcDbLine
 10
38.13455755120916
 20
156.7581368476353
 30
0.0
 11
35.33455755120917
 21
156.7581368476352
 31
0.0
  0
LINE
  5
2DE
330
37
100
AcDbEntity
  8
Sichtbare Kanten(TC_020513_DIN)
100
AcDbLine
 10
35.76549702286565
 20
166.7581368476352
 30
0.0
 11
38.13455755120916
 21
166.7581368476352
 31
0.0
  0
POLYLINE
  5
2DF
330
37
100
AcDbEntity
  8
Sichtbare Kanten(TC_020513_DIN)
100
AcDb2dPolyline
 66
     1
 10
0.0
 20
0.0
 30
0.0
 70
   128
  0
VERTEX
  5
2E0
330
2DF
100
AcDbEntity
  8
Sichtbare Kanten(TC_020513_DIN)
100
AcDbVertex
100
AcDb2dVertex
 10
49.05008317834539
 20
166.12122063114
 30
0.0
  0
VERTEX
  5
2E1
330
2DF
100
AcDbEntity
  8
Sichtbare Kanten(TC_020513_DIN)
100
AcDbVertex
100
AcDb2dVertex
 10
49.07771350747747
 20
166.2547111935789
 30
0.0
  0
VERTEX
  5
2E3
330
2DF
100
AcDbEntity
  8
Sichtbare Kanten(TC_020513_DIN)
100
AcDbVertex
100
AcDb2dVertex
 10
49.10529138452215
 20
166.3851356930907
 30
0.0
  0
VERTEX
  5
2E4
330
2DF
100
AcDbEntity
  8
Sichtbare Kanten(TC_020513_DIN)
100
AcDbVertex
100
AcDb2dVertex
 10
49.13283826715154
 20
166.5122545190031
 30
0.0
  0
VERTEX
  5
2E5
330
2DF
100
AcDbEntity
  8
Sichtbare Kanten(TC_020513_DIN)
100
AcDbVertex
100
AcDb2dVertex
 10
49.16036607629461
 20
166.6358280606444
 30
0.0
  0
VERTEX
  5
2E6
330
2DF
100
AcDbEntity
  8
Sichtbare Kanten(TC_020513_DIN)
100
AcDbVertex
100
AcDb2dVertex
 10
49.18789626962347
 20
166.7556155152495
 30
0.0
  0
VERTEX
  5
2E7
330
2DF
100
AcDbEntity
  8
Sichtbare Kanten(TC_020513_DIN)
100
AcDbVertex
100
AcDb2dVertex
 10
49.21544792062444
 20
166.8713796563323
 30
0.0
  0
VERTEX
  5
2E8
330
2DF
100
AcDbEntity
  8
Sichtbare Kanten(TC_020513_DIN)
100
AcDbVertex
100
AcDb2dVertex
 10
49.24303771859808
 20
166.9828784890349
 30
0.0
  0
VERTEX
  5
2E9
330
2DF
100
AcDbEntity
  8
Sichtbare Kanten(TC_020513_DIN)
100
AcDbVertex
100
AcDb2dVertex
 10
49.27067758447332
 20
167.0898592896636
 30
0.0
  0
VERTEX
  5
2EA
330
2DF
100
AcDbEntity
  8
Sichtbare Kanten(TC_020513_DIN)
100
AcDbVertex
100
AcDb2dVertex
 10
49.29829360849065
 20
167.1917403168852
 30
0.0
  0
VERTEX
  5
2EB
330
2DF
100
AcDbEntity
  8
Sichtbare Kanten(TC_020513_DIN)
100
AcDbVertex
100
AcDb2dVertex
 10
49.32586433297796
 20
167.288190168875
 30
0.0
  0
VERTEX
  5
2EC
330
2DF
100
AcDbEntity
  8
Sichtbare Kanten(TC_020513_DIN)
100
AcDbVertex
100
AcDb2dVertex
 10
49.35340406304998
 20
167.3790431447203
 30
0.0
  0
VERTEX
  5
2ED
330
2DF
100
AcDbEntity
  8
Sichtbare Kanten(TC_020513_DIN)
100
AcDbVertex
100
AcDb2dVertex
 10
49.38093187219305
 20
167.4641335435087
 30
0.0
  0
VERTEX
  5
2EE
330
2DF
100
AcDbEntity
  8
Sichtbare Kanten(TC_020513_DIN)
100
AcDbVertex
100
AcDb2dVertex
 10
49.40846683389349
 20
167.5432956643279
 30
0.0
  0
VERTEX
  5
2EF
330
2DF
100
AcDbEntity
  8
Sichtbare Kanten(TC_020513_DIN)
100
AcDbVertex
100
AcDb2dVertex
 10
49.43602325326605
 20
167.6163661904509
 30
0.0
  0
VERTEX
  5
2F0
330
2DF
100
AcDbEntity
  8
Sichtbare Kanten(TC_020513_DIN)
100
AcDbVertex
100
AcDb2dVertex
 10
49.46362258798284
 20
167.6831794209654
 30
0.0
  0
VERTEX
  5
2F1
330
2DF
100
AcDbEntity
  8
Sichtbare Kanten(TC_020513_DIN)
100
AcDbVertex
100
AcDb2dVertex
 10
49.49127199060125
 20
167.743545813101
 30
0.0
  0
VERTEX
  5
2F2
330
2DF
100
AcDbEntity
  8
Sichtbare Kanten(TC_020513_DIN)
100
AcDbVertex
100
AcDb2dVertex
 10
49.51890708810491
 20
167.7971589989836
 30
0.0
  0
VERTEX
  5
2F3
330
2DF
100
AcDbEntity
  8
Sichtbare Kanten(TC_020513_DIN)
100
AcDbVertex
100
AcDb2dVertex
 10
49.54653026467962
 20
167.8438926167662
 30
0.0
  0
VERTEX
  5
2F4
330
2DF
100
AcDbEntity
  8
Sichtbare Kanten(TC_020513_DIN)
100
AcDbVertex
100
AcDb2dVertex
 10
49.57415820962591
 20
167.8836560673888
 30
0.0
  0
VERTEX
  5
2F5
330
2DF
100
AcDbEntity
  8
Sichtbare Kanten(TC_020513_DIN)
100
AcDbVertex
100
AcDb2dVertex
 10
49.60180999643011
 20
167.9163587517912
 30
0.0
  0
VERTEX
  5
2F6
330
2DF
100
AcDbEntity
  8
Sichtbare Kanten(TC_020513_DIN)
100
AcDbVertex
100
AcDb2dVertex
 10
49.62944986230535
 20
167.9418695397551
 30
0.0
  0
VERTEX
  5
2F7
330
2DF
100
AcDbEntity
  8
Sichtbare Kanten(TC_020513_DIN)
100
AcDbVertex
100
AcDb2dVertex
 10
49.65707303888006
 20
167.9601300187285
 30
0.0
  0
VERTEX
  5
2F8
330
2DF
100
AcDbEntity
  8
Sichtbare Kanten(TC_020513_DIN)
100
AcDbVertex
100
AcDb2dVertex
 10
49.68469859964056
 20
167.9711080022032
 30
0.0
  0
VERTEX
  5
2F9
330
2DF
100
AcDbEntity
  8
Sichtbare Kanten(TC_020513_DIN)
100
AcDbVertex
100
AcDb2dVertex
 10
49.71234561807317
 20
167.9747736878569
 30
0.0
  0
SEQEND
  5
2E2
330
2DF
100
AcDbEntity
  8
Sichtbare Kanten(TC_020513_DIN)
  0
POLYLINE
  5
2FA
330
37
100
AcDbEntity
  8
Sichtbare Kanten(TC_020513_DIN)
100
AcDb2dPolyline
 66
     1
 10
0.0
 20
0.0
 30
0.0
 70
   128
  0
VERTEX
  5
2FB
330
2FA
100
AcDbEntity
  8
Sichtbare Kanten(TC_020513_DIN)
100
AcDbVertex
100
AcDb2dVertex
 10
49.71234561807317
 20
166.5747738309081
 30
0.0
  0
VERTEX
  5
2FC
330
2FA
100
AcDbEntity
  8
Sichtbare Kanten(TC_020513_DIN)
100
AcDbVertex
100
AcDb2dVertex
 10
49.68468906289739
 20
166.5729391999419
 30
0.0
  0
VERTEX
  5
2FE
330
2FA
100
AcDbEntity
  8
Sichtbare Kanten(TC_020513_DIN)
100
AcDbVertex
100
AcDb2dVertex
 10
49.65708734399481
 20
166.5674555726225
 30
0.0
  0
VERTEX
  5
2FF
330
2FA
100
AcDbEntity
  8
Sichtbare Kanten(TC_020513_DIN)
100
AcDbVertex
100
AcDb2dVertex
 10
49.62952377206487
 20
166.5583503670866
 30
0.0
  0
VERTEX
  5
300
330
2FA
100
AcDbEntity
  8
Sichtbare Kanten(TC_020513_DIN)
100
AcDbVertex
100
AcDb2dVertex
 10
49.60197927362127
 20
166.5456545777495
 30
0.0
  0
VERTEX
  5
301
330
2FA
100
AcDbEntity
  8
Sichtbare Kanten(TC_020513_DIN)
100
AcDbVertex
100
AcDb2dVertex
 10
49.57443715936346
 20
166.5293968148406
 30
0.0
  0
VERTEX
  5
302
330
2FA
100
AcDbEntity
  8
Sichtbare Kanten(TC_020513_DIN)
100
AcDbVertex
100
AcDb2dVertex
 10
49.54687835580511
 20
166.5096044964964
 30
0.0
  0
VERTEX
  5
303
330
2FA
100
AcDbEntity
  8
Sichtbare Kanten(TC_020513_DIN)
100
AcDbVertex
100
AcDb2dVertex
 10
49.51928378945989
 20
166.4863086171324
 30
0.0
  0
VERTEX
  5
304
330
2FA
100
AcDbEntity
  8
Sichtbare Kanten(TC_020513_DIN)
100
AcDbVertex
100
AcDb2dVertex
 10
49.49163915521307
 20
166.459537786978
 30
0.0
  0
VERTEX
  5
305
330
2FA
100
AcDbEntity
  8
Sichtbare Kanten(TC_020513_DIN)
100
AcDbVertex
100
AcDb2dVertex
 10
49.46397306329412
 20
166.4293790288145
 30
0.0
  0
VERTEX
  5
306
330
2FA
100
AcDbEntity
  8
Sichtbare Kanten(TC_020513_DIN)
100
AcDbVertex
100
AcDb2dVertex
 10
49.43636419183416
 20
166.3960004277403
 30
0.0
  0
VERTEX
  5
307
330
2FA
100
AcDbEntity
  8
Sichtbare Kanten(TC_020513_DIN)
100
AcDbVertex
100
AcDb2dVertex
 10
49.40879346734686
 20
166.3594890065367
 30
0.0
  0
VERTEX
  5
308
330
2FA
100
AcDbEntity
  8
Sichtbare Kanten(TC_020513_DIN)
100
AcDbVertex
100
AcDb2dVertex
 10
49.38124658471746
 20
166.3199246354277
 30
0.0
  0
VERTEX
  5
309
330
2FA
100
AcDbEntity
  8
Sichtbare Kanten(TC_020513_DIN)
100
AcDbVertex
100
AcDb2dVertex
 10
49.35370685464544
 20
166.277390760916
 30
0.0
  0
VERTEX
  5
30A
330
2FA
100
AcDbEntity
  8
Sichtbare Kanten(TC_020513_DIN)
100
AcDbVertex
100
AcDb2dVertex
 10
49.32615043527288
 20
166.2319696374114
 30
0.0
  0
VERTEX
  5
30B
330
2FA
100
AcDbEntity
  8
Sichtbare Kanten(TC_020513_DIN)
100
AcDbVertex
100
AcDb2dVertex
 10
49.29856540567083
 20
166.1837423272307
 30
0.0
  0
VERTEX
  5
30C
330
2FA
100
AcDbEntity
  8
Sichtbare Kanten(TC_020513_DIN)
100
AcDbVertex
100
AcDb2dVertex
 10
49.27093030816717
 20
166.1327922768767
 30
0.0
  0
VERTEX
  5
30D
330
2FA
100
AcDbEntity
  8
Sichtbare Kanten(TC_020513_DIN)
100
AcDbVertex
100
AcDb2dVertex
 10
49.24325706369085
 20
166.0792625374968
 30
0.0
  0
VERTEX
  5
30E
330
2FA
100
AcDbEntity
  8
Sichtbare Kanten(TC_020513_DIN)
100
AcDbVertex
100
AcDb2dVertex
 10
49.21563388711614
 20
166.0234594769652
 30
0.0
  0
VERTEX
  5
30F
330
2FA
100
AcDbEntity
  8
Sichtbare Kanten(TC_020513_DIN)
100
AcDbVertex
100
AcDb2dVertex
 10
49.18804885751409
 20
165.9655201859648
 30
0.0
  0
VERTEX
  5
310
330
2FA
100
AcDbEntity
  8
Sichtbare Kanten(TC_020513_DIN)
100
AcDbVertex
100
AcDb2dVertex
 10
49.16048528558416
 20
165.9055650658781
 30
0.0
  0
VERTEX
  5
311
330
2FA
100
AcDbEntity
  8
Sichtbare Kanten(TC_020513_DIN)
100
AcDbVertex
100
AcDb2dVertex
 10
49.13292648202581
 20
165.8437157101805
 30
0.0
  0
VERTEX
  5
312
330
2FA
100
AcDbEntity
  8
Sichtbare Kanten(TC_020513_DIN)
100
AcDbVertex
100
AcDb2dVertex
 10
49.10535098916692
 20
165.7800901360686
 30
0.0
  0
VERTEX
  5
313
330
2FA
100
AcDbEntity
  8
Sichtbare Kanten(TC_020513_DIN)
100
AcDbVertex
100
AcDb2dVertex
 10
49.07774211770696
 20
165.7148111291106
 30
0.0
  0
VERTEX
  5
314
330
2FA
100
AcDbEntity
  8
Sichtbare Kanten(TC_020513_DIN)
100
AcDbVertex
100
AcDb2dVertex
 10
49.05008317834539
 20
165.647997898596
 30
0.0
  0
SEQEND
  5
2FD
330
2FA
100
AcDbEntity
  8
Sichtbare Kanten(TC_020513_DIN)
  0
LINE
  5
315
330
37
100
AcDbEntity
  8
Sichtbare Kanten(TC_020513_DIN)
100
AcDbLine
 10
49.71234447672698
 20
167.1907752805075
 30
0.0
 11
49.71234447672698
 21
166.574774150226
 31
0.0
  0
LINE
  5
316
330
37
100
AcDbEntity
  8
Sichtbare Kanten(TC_020513_DIN)
100
AcDbLine
 10
49.71234447672697
 20
167.974774150226
 30
0.0
 11
49.71234447672698
 21
167.1907752805075
 31
0.0
  0
POLYLINE
  5
317
330
37
100
AcDbEntity
  8
Sichtbare Kanten(TC_020513_DIN)
100
AcDb2dPolyline
 66
     1
 10
0.0
 20
0.0
 30
0.0
 70
   128
  0
VERTEX
  5
318
330
317
100
AcDbEntity
  8
Sichtbare Kanten(TC_020513_DIN)
100
AcDbVertex
100
AcDb2dVertex
 10
48.63865615731878
 20
165.1747739739592
 30
0.0
  0
VERTEX
  5
319
330
317
100
AcDbEntity
  8
Sichtbare Kanten(TC_020513_DIN)
100
AcDbVertex
100
AcDb2dVertex
 10
48.64886047250433
 20
165.1885307259734
 30
0.0
  0
VERTEX
  5
31B
330
317
100
AcDbEntity
  8
Sichtbare Kanten(TC_020513_DIN)
100
AcDbVertex
100
AcDb2dVertex
 10
48.6603856266181
 20
165.2043950982268
 30
0.0
  0
VERTEX
  5
31C
330
317
100
AcDbEntity
  8
Sichtbare Kanten(TC_020513_DIN)
100
AcDbVertex
100
AcDb2dVertex
 10
48.67311956292791
 20
165.2223372883971
 30
0.0
  0
VERTEX
  5
31D
330
317
100
AcDbEntity
  8
Sichtbare Kanten(TC_020513_DIN)
100
AcDbVertex
100
AcDb2dVertex
 10
48.68695499307317
 20
165.2423346467192
 30
0.0
  0
VERTEX
  5
31E
330
317
100
AcDbEntity
  8
Sichtbare Kanten(TC_020513_DIN)
100
AcDbVertex
100
AcDb2dVertex
 10
48.70177986032171
 20
165.2643585629637
 30
0.0
  0
VERTEX
  5
31F
330
317
100
AcDbEntity
  8
Sichtbare Kanten(TC_020513_DIN)
100
AcDbVertex
100
AcDb2dVertex
 10
48.71748687631292
 20
165.2883828110869
 30
0.0
  0
VERTEX
  5
320
330
317
100
AcDbEntity
  8
Sichtbare Kanten(TC_020513_DIN)
100
AcDbVertex
100
AcDb2dVertex
 10
48.73396636850042
 20
165.314381165045
 30
0.0
  0
VERTEX
  5
321
330
317
100
AcDbEntity
  8
Sichtbare Kanten(TC_020513_DIN)
100
AcDbVertex
100
AcDb2dVertex
 10
48.75111104852361
 20
165.3423285908873
 30
0.0
  0
VERTEX
  5
322
330
317
100
AcDbEntity
  8
Sichtbare Kanten(TC_020513_DIN)
100
AcDbVertex
100
AcDb2dVertex
 10
48.76880885965032
 20
165.3721964783843
 30
0.0
  0
VERTEX
  5
323
330
317
100
AcDbEntity
  8
Sichtbare Kanten(TC_020513_DIN)
100
AcDbVertex
100
AcDb2dVertex
 10
48.78695251351995
 20
165.403960985678
 30
0.0
  0
VERTEX
  5
324
330
317
100
AcDbEntity
  8
Sichtbare Kanten(TC_020513_DIN)
100
AcDbVertex
100
AcDb2dVertex
 10
48.80543233758611
 20
165.4375935025389
 30
0.0
  0
VERTEX
  5
325
330
317
100
AcDbEntity
  8
Sichtbare Kanten(TC_020513_DIN)
100
AcDbVertex
100
AcDb2dVertex
 10
48.82413865930242
 20
165.4730678029234
 30
0.0
  0
VERTEX
  5
326
330
317
100
AcDbEntity
  8
Sichtbare Kanten(TC_020513_DIN)
100
AcDbVertex
100
AcDb2dVertex
 10
48.84296180612249
 20
165.5103588528807
 30
0.0
  0
VERTEX
  5
327
330
317
100
AcDbEntity
  8
Sichtbare Kanten(TC_020513_DIN)
100
AcDbVertex
100
AcDb2dVertex
 10
48.86179448968572
 20
165.5494392342741
 30
0.0
  0
VERTEX
  5
328
330
317
100
AcDbEntity
  8
Sichtbare Kanten(TC_020513_DIN)
100
AcDbVertex
100
AcDb2dVertex
 10
48.88052465325994
 20
165.5902839131529
 30
0.0
  0
VERTEX
  5
329
330
317
100
AcDbEntity
  8
Sichtbare Kanten(TC_020513_DIN)
100
AcDbVertex
100
AcDb2dVertex
 10
48.89904739267034
 20
165.6328642792876
 30
0.0
  0
VERTEX
  5
32A
330
317
100
AcDbEntity
  8
Sichtbare Kanten(TC_020513_DIN)
100
AcDbVertex
100
AcDb2dVertex
 10
48.91769410974188
 20
165.6781721539671
 30
0.0
  0
VERTEX
  5
32B
330
317
100
AcDbEntity
  8
Sichtbare Kanten(TC_020513_DIN)
100
AcDbVertex
100
AcDb2dVertex
 10
48.93702985650701
 20
165.7279885239775
 30
0.0
  0
VERTEX
  5
32C
330
317
100
AcDbEntity
  8
Sichtbare Kanten(TC_020513_DIN)
100
AcDbVertex
100
AcDb2dVertex
 10
48.95675184137029
 20
165.7823288865263
 30
0.0
  0
VERTEX
  5
32D
330
317
100
AcDbEntity
  8
Sichtbare Kanten(TC_020513_DIN)
100
AcDbVertex
100
AcDb2dVertex
 10
48.97654296762151
 20
165.8411753602202
 30
0.0
  0
VERTEX
  5
32E
330
317
100
AcDbEntity
  8
Sichtbare Kanten(TC_020513_DIN)
100
AcDbVertex
100
AcDb2dVertex
 10
48.99609090692205
 20
165.9045076794798
 30
0.0
  0
VERTEX
  5
32F
330
317
100
AcDbEntity
  8
Sichtbare Kanten(TC_020513_DIN)
100
AcDbVertex
100
AcDb2dVertex
 10
49.01507379419012
 20
165.972305578726
 30
0.0
  0
VERTEX
  5
330
330
317
100
AcDbEntity
  8
Sichtbare Kanten(TC_020513_DIN)
100
AcDbVertex
100
AcDb2dVertex
 10
49.0331769169013
 20
166.0445487923796
 30
0.0
  0
VERTEX
  5
331
330
317
100
AcDbEntity
  8
Sichtbare Kanten(TC_020513_DIN)
100
AcDbVertex
100
AcDb2dVertex
 10
49.05008317834539
 20
166.12122063114
 30
0.0
  0
SEQEND
  5
31A
330
317
100
AcDbEntity
  8
Sichtbare Kanten(TC_020513_DIN)
  0
POLYLINE
  5
332
330
37
100
AcDbEntity
  8
Sichtbare Kanten(TC_020513_DIN)
100
AcDb2dPolyline
 66
     1
 10
0.0
 20
0.0
 30
0.0
 70
   128
  0
VERTEX
  5
333
330
332
100
AcDbEntity
  8
Sichtbare Kanten(TC_020513_DIN)
100
AcDbVertex
100
AcDb2dVertex
 10
49.05008317834539
 20
165.647997898596
 30
0.0
  0
VERTEX
  5
334
330
332
100
AcDbEntity
  8
Sichtbare Kanten(TC_020513_DIN)
100
AcDbVertex
100
AcDb2dVertex
 10
49.0442419231574
 20
165.6341064400847
 30
0.0
  0
VERTEX
  5
336
330
332
100
AcDbEntity
  8
Sichtbare Kanten(TC_020513_DIN)
100
AcDbVertex
100
AcDb2dVertex
 10
49.03730394250555
 20
165.6184590287383
 30
0.0
  0
VERTEX
  5
337
330
332
100
AcDbEntity
  8
Sichtbare Kanten(TC_020513_DIN)
100
AcDbVertex
100
AcDb2dVertex
 10
49.02916671640081
 20
165.6011510319884
 30
0.0
  0
VERTEX
  5
338
330
332
100
AcDbEntity
  8
Sichtbare Kanten(TC_020513_DIN)
100
AcDbVertex
100
AcDb2dVertex
 10
49.0197229564826
 20
165.5822825856383
 30
0.0
  0
VERTEX
  5
339
330
332
100
AcDbEntity
  8
Sichtbare Kanten(TC_020513_DIN)
100
AcDbVertex
100
AcDb2dVertex
 10
49.0088677585761
 20
165.5619514413054
 30
0.0
  0
VERTEX
  5
33A
330
332
100
AcDbEntity
  8
Sichtbare Kanten(TC_020513_DIN)
100
AcDbVertex
100
AcDb2dVertex
 10
48.99649621850652
 20
165.5402553506071
 30
0.0
  0
VERTEX
  5
33B
330
332
100
AcDbEntity
  8
Sichtbare Kanten(TC_020513_DIN)
100
AcDbVertex
100
AcDb2dVertex
 10
48.98249866372747
 20
165.5172944493468
 30
0.0
  0
VERTEX
  5
33C
330
332
100
AcDbEntity
  8
Sichtbare Kanten(TC_020513_DIN)
100
AcDbVertex
100
AcDb2dVertex
 10
48.96677495843572
 20
165.4931652970488
 30
0.0
  0
VERTEX
  5
33D
330
332
100
AcDbEntity
  8
Sichtbare Kanten(TC_020513_DIN)
100
AcDbVertex
100
AcDb2dVertex
 10
48.94921543008489
 20
165.4679656453307
 30
0.0
  0
VERTEX
  5
33E
330
332
100
AcDbEntity
  8
Sichtbare Kanten(TC_020513_DIN)
100
AcDbVertex
100
AcDb2dVertex
 10
48.92971755868597
 20
165.4417968220885
 30
0.0
  0
VERTEX
  5
33F
330
332
100
AcDbEntity
  8
Sichtbare Kanten(TC_020513_DIN)
100
AcDbVertex
100
AcDb2dVertex
 10
48.90817405587835
 20
165.4147541947539
 30
0.0
  0
VERTEX
  5
340
330
332
100
AcDbEntity
  8
Sichtbare Kanten(TC_020513_DIN)
100
AcDbVertex
100
AcDb2dVertex
 10
48.88495923883123
 20
165.3875077195341
 30
0.0
  0
VERTEX
  5
341
330
332
100
AcDbEntity
  8
Sichtbare Kanten(TC_020513_DIN)
100
AcDbVertex
100
AcDb2dVertex
 10
48.86138917810125
 20
165.3616202302153
 30
0.0
  0
VERTEX
  5
342
330
332
100
AcDbEntity
  8
Sichtbare Kanten(TC_020513_DIN)
100
AcDbVertex
100
AcDb2dVertex
 10
48.83772374993963
 20
165.3371835179503
 30
0.0
  0
VERTEX
  5
343
330
332
100
AcDbEntity
  8
Sichtbare Kanten(TC_020513_DIN)
100
AcDbVertex
100
AcDb2dVertex
 10
48.81415607339544
 20
165.3142071194823
 30
0.0
  0
VERTEX
  5
344
330
332
100
AcDbEntity
  8
Sichtbare Kanten(TC_020513_DIN)
100
AcDbVertex
100
AcDb2dVertex
 10
48.79088165170355
 20
165.2927005715544
 30
0.0
  0
VERTEX
  5
345
330
332
100
AcDbEntity
  8
Sichtbare Kanten(TC_020513_DIN)
100
AcDbVertex
100
AcDb2dVertex
 10
48.76809598809881
 20
165.2726757950957
 30
0.0
  0
VERTEX
  5
346
330
332
100
AcDbEntity
  8
Sichtbare Kanten(TC_020513_DIN)
100
AcDbVertex
100
AcDb2dVertex
 10
48.74599458581609
 20
165.2541399426634
 30
0.0
  0
VERTEX
  5
347
330
332
100
AcDbEntity
  8
Sichtbare Kanten(TC_020513_DIN)
100
AcDbVertex
100
AcDb2dVertex
 10
48.72477056390447
 20
165.2371037430937
 30
0.0
  0
VERTEX
  5
348
330
332
100
AcDbEntity
  8
Sichtbare Kanten(TC_020513_DIN)
100
AcDbVertex
100
AcDb2dVertex
 10
48.7046218097846
 20
165.2215779252226
 30
0.0
  0
VERTEX
  5
349
330
332
100
AcDbEntity
  8
Sichtbare Kanten(TC_020513_DIN)
100
AcDbVertex
100
AcDb2dVertex
 10
48.68573905831976
 20
165.2075720257933
 30
0.0
  0
VERTEX
  5
34A
330
332
100
AcDbEntity
  8
Sichtbare Kanten(TC_020513_DIN)
100
AcDbVertex
100
AcDb2dVertex
 10
48.6683201969306
 20
165.1950967736418
 30
0.0
  0
VERTEX
  5
34B
330
332
100
AcDbEntity
  8
Sichtbare Kanten(TC_020513_DIN)
100
AcDbVertex
100
AcDb2dVertex
 10
48.65256072885198
 20
165.1841605134184
 30
0.0
  0
VERTEX
  5
34C
330
332
100
AcDbEntity
  8
Sichtbare Kanten(TC_020513_DIN)
100
AcDbVertex
100
AcDb2dVertex
 10
48.63865615731878
 20
165.1747739739592
 30
0.0
  0
SEQEND
  5
335
330
332
100
AcDbEntity
  8
Sichtbare Kanten(TC_020513_DIN)
  0
POLYLINE
  5
34D
330
37
100
AcDbEntity
  8
Sichtbare Kanten(TC_020513_DIN)
100
AcDb2dPolyline
 66
     1
 10
0.0
 20
0.0
 30
0.0
 70
   128
  0
VERTEX
  5
34E
330
34D
100
AcDbEntity
  8
Sichtbare Kanten(TC_020513_DIN)
100
AcDbVertex
100
AcDb2dVertex
 10
121.5304589450995
 20
165.1747739739592
 30
0.0
  0
VERTEX
  5
34F
330
34D
100
AcDbEntity
  8
Sichtbare Kanten(TC_020513_DIN)
100
AcDbVertex
100
AcDb2dVertex
 10
121.5165543735663
 20
165.1841605134184
 30
0.0
  0
VERTEX
  5
351
330
34D
100
AcDbEntity
  8
Sichtbare Kanten(TC_020513_DIN)
100
AcDbVertex
100
AcDb2dVertex
 10
121.5007949054877
 20
165.1950967736418
 30
0.0
  0
VERTEX
  5
352
330
34D
100
AcDbEntity
  8
Sichtbare Kanten(TC_020513_DIN)
100
AcDbVertex
100
AcDb2dVertex
 10
121.4833760440986
 20
165.2075720257933
 30
0.0
  0
VERTEX
  5
353
330
34D
100
AcDbEntity
  8
Sichtbare Kanten(TC_020513_DIN)
100
AcDbVertex
100
AcDb2dVertex
 10
121.4644932926337
 20
165.2215779252226
 30
0.0
  0
VERTEX
  5
354
330
34D
100
AcDbEntity
  8
Sichtbare Kanten(TC_020513_DIN)
100
AcDbVertex
100
AcDb2dVertex
 10
121.4443445385138
 20
165.2371037430937
 30
0.0
  0
VERTEX
  5
355
330
34D
100
AcDbEntity
  8
Sichtbare Kanten(TC_020513_DIN)
100
AcDbVertex
100
AcDb2dVertex
 10
121.4231205166022
 20
165.2541399426634
 30
0.0
  0
VERTEX
  5
356
330
34D
100
AcDbEntity
  8
Sichtbare Kanten(TC_020513_DIN)
100
AcDbVertex
100
AcDb2dVertex
 10
121.4010191143195
 20
165.2726757950957
 30
0.0
  0
VERTEX
  5
357
330
34D
100
AcDbEntity
  8
Sichtbare Kanten(TC_020513_DIN)
100
AcDbVertex
100
AcDb2dVertex
 10
121.3782334507148
 20
165.2927005715544
 30
0.0
  0
VERTEX
  5
358
330
34D
100
AcDbEntity
  8
Sichtbare Kanten(TC_020513_DIN)
100
AcDbVertex
100
AcDb2dVertex
 10
121.3549590290229
 20
165.3142071194823
 30
0.0
  0
VERTEX
  5
359
330
34D
100
AcDbEntity
  8
Sichtbare Kanten(TC_020513_DIN)
100
AcDbVertex
100
AcDb2dVertex
 10
121.3313913524787
 20
165.3371835179503
 30
0.0
  0
VERTEX
  5
35A
330
34D
100
AcDbEntity
  8
Sichtbare Kanten(TC_020513_DIN)
100
AcDbVertex
100
AcDb2dVertex
 10
121.3077259243171
 20
165.3616202302153
 30
0.0
  0
VERTEX
  5
35B
330
34D
100
AcDbEntity
  8
Sichtbare Kanten(TC_020513_DIN)
100
AcDbVertex
100
AcDb2dVertex
 10
121.2841558635871
 20
165.3875077195341
 30
0.0
  0
VERTEX
  5
35C
330
34D
100
AcDbEntity
  8
Sichtbare Kanten(TC_020513_DIN)
100
AcDbVertex
100
AcDb2dVertex
 10
121.26094104654
 20
165.4147541947539
 30
0.0
  0
VERTEX
  5
35D
330
34D
100
AcDbEntity
  8
Sichtbare Kanten(TC_020513_DIN)
100
AcDbVertex
100
AcDb2dVertex
 10
121.2393975437323
 20
165.4417968220885
 30
0.0
  0
VERTEX
  5
35E
330
34D
100
AcDbEntity
  8
Sichtbare Kanten(TC_020513_DIN)
100
AcDbVertex
100
AcDb2dVertex
 10
121.2198996723334
 20
165.4679656453307
 30
0.0
  0
VERTEX
  5
35F
330
34D
100
AcDbEntity
  8
Sichtbare Kanten(TC_020513_DIN)
100
AcDbVertex
100
AcDb2dVertex
 10
121.2023401439826
 20
165.4931652970488
 30
0.0
  0
VERTEX
  5
360
330
34D
100
AcDbEntity
  8
Sichtbare Kanten(TC_020513_DIN)
100
AcDbVertex
100
AcDb2dVertex
 10
121.1866164386908
 20
165.5172944493468
 30
0.0
  0
VERTEX
  5
361
330
34D
100
AcDbEntity
  8
Sichtbare Kanten(TC_020513_DIN)
100
AcDbVertex
100
AcDb2dVertex
 10
121.1726188839118
 20
165.5402553506071
 30
0.0
  0
VERTEX
  5
362
330
34D
100
AcDbEntity
  8
Sichtbare Kanten(TC_020513_DIN)
100
AcDbVertex
100
AcDb2dVertex
 10
121.1602473438422
 20
165.5619514413054
 30
0.0
  0
VERTEX
  5
363
330
34D
100
AcDbEntity
  8
Sichtbare Kanten(TC_020513_DIN)
100
AcDbVertex
100
AcDb2dVertex
 10
121.1493921459357
 20
165.5822825856383
 30
0.0
  0
VERTEX
  5
364
330
34D
100
AcDbEntity
  8
Sichtbare Kanten(TC_020513_DIN)
100
AcDbVertex
100
AcDb2dVertex
 10
121.1399483860175
 20
165.6011510319884
 30
0.0
  0
VERTEX
  5
365
330
34D
100
AcDbEntity
  8
Sichtbare Kanten(TC_020513_DIN)
100
AcDbVertex
100
AcDb2dVertex
 10
121.1318111599128
 20
165.6184590287383
 30
0.0
  0
VERTEX
  5
366
330
34D
100
AcDbEntity
  8
Sichtbare Kanten(TC_020513_DIN)
100
AcDbVertex
100
AcDb2dVertex
 10
121.1248731792609
 20
165.6341064400847
 30
0.0
  0
VERTEX
  5
367
330
34D
100
AcDbEntity
  8
Sichtbare Kanten(TC_020513_DIN)
100
AcDbVertex
100
AcDb2dVertex
 10
121.1190319240729
 20
165.647997898596
 30
0.0
  0
SEQEND
  5
350
330
34D
100
AcDbEntity
  8
Sichtbare Kanten(TC_020513_DIN)
  0
POLYLINE
  5
368
330
37
100
AcDbEntity
  8
Sichtbare Kanten(TC_020513_DIN)
100
AcDb2dPolyline
 66
     1
 10
0.0
 20
0.0
 30
0.0
 70
   128
  0
VERTEX
  5
369
330
368
100
AcDbEntity
  8
Sichtbare Kanten(TC_020513_DIN)
100
AcDbVertex
100
AcDb2dVertex
 10
121.1190319240729
 20
165.647997898596
 30
0.0
  0
VERTEX
  5
36A
330
368
100
AcDbEntity
  8
Sichtbare Kanten(TC_020513_DIN)
100
AcDbVertex
100
AcDb2dVertex
 10
121.0913753688971
 20
165.7148051686461
 30
0.0
  0
VERTEX
  5
36C
330
368
100
AcDbEntity
  8
Sichtbare Kanten(TC_020513_DIN)
100
AcDbVertex
100
AcDb2dVertex
 10
121.0637736499945
 20
165.7800686783964
 30
0.0
  0
VERTEX
  5
36D
330
368
100
AcDbEntity
  8
Sichtbare Kanten(TC_020513_DIN)
100
AcDbVertex
100
AcDb2dVertex
 10
121.0362100780646
 20
165.8436680264647
 30
0.0
  0
VERTEX
  5
36E
330
368
100
AcDbEntity
  8
Sichtbare Kanten(TC_020513_DIN)
100
AcDbVertex
100
AcDb2dVertex
 10
121.008665579621
 20
165.9054840035612
 30
0.0
  0
VERTEX
  5
36F
330
368
100
AcDbEntity
  8
Sichtbare Kanten(TC_020513_DIN)
100
AcDbVertex
100
AcDb2dVertex
 10
120.9811234653632
 20
165.9653974003966
 30
0.0
  0
VERTEX
  5
370
330
368
100
AcDbEntity
  8
Sichtbare Kanten(TC_020513_DIN)
100
AcDbVertex
100
AcDb2dVertex
 10
120.9535646618048
 20
166.0232890076811
 30
0.0
  0
VERTEX
  5
371
330
368
100
AcDbEntity
  8
Sichtbare Kanten(TC_020513_DIN)
100
AcDbVertex
100
AcDb2dVertex
 10
120.9259700954596
 20
166.0790396161253
 30
0.0
  0
VERTEX
  5
372
330
368
100
AcDbEntity
  8
Sichtbare Kanten(TC_020513_DIN)
100
AcDbVertex
100
AcDb2dVertex
 10
120.8983254612128
 20
166.1325288243468
 30
0.0
  0
VERTEX
  5
373
330
368
100
AcDbEntity
  8
Sichtbare Kanten(TC_020513_DIN)
100
AcDbVertex
100
AcDb2dVertex
 10
120.8706593692939
 20
166.1835468239958
 30
0.0
  0
VERTEX
  5
374
330
368
100
AcDbEntity
  8
Sichtbare Kanten(TC_020513_DIN)
100
AcDbVertex
100
AcDb2dVertex
 10
120.8430504978339
 20
166.2318242020781
 30
0.0
  0
VERTEX
  5
375
330
368
100
AcDbEntity
  8
Sichtbare Kanten(TC_020513_DIN)
100
AcDbVertex
100
AcDb2dVertex
 10
120.8154821575324
 20
166.277276319998
 30
0.0
  0
VERTEX
  5
376
330
368
100
AcDbEntity
  8
Sichtbare Kanten(TC_020513_DIN)
100
AcDbVertex
100
AcDb2dVertex
 10
120.787935274903
 20
166.3198244996245
 30
0.0
  0
VERTEX
  5
377
330
368
100
AcDbEntity
  8
Sichtbare Kanten(TC_020513_DIN)
100
AcDbVertex
100
AcDb2dVertex
 10
120.7603931606452
 20
166.3593888707335
 30
0.0
  0
VERTEX
  5
378
330
368
100
AcDbEntity
  8
Sichtbare Kanten(TC_020513_DIN)
100
AcDbVertex
100
AcDb2dVertex
 10
120.7328367412726
 20
166.3958919472868
 30
0.0
  0
VERTEX
  5
379
330
368
100
AcDbEntity
  8
Sichtbare Kanten(TC_020513_DIN)
100
AcDbVertex
100
AcDb2dVertex
 10
120.7052517116706
 20
166.4292526669676
 30
0.0
  0
VERTEX
  5
37A
330
368
100
AcDbEntity
  8
Sichtbare Kanten(TC_020513_DIN)
100
AcDbVertex
100
AcDb2dVertex
 10
120.6776166141669
 20
166.4593935437376
 30
0.0
  0
VERTEX
  5
37B
330
368
100
AcDbEntity
  8
Sichtbare Kanten(TC_020513_DIN)
100
AcDbVertex
100
AcDb2dVertex
 10
120.6499433696906
 20
166.4862060971434
 30
0.0
  0
VERTEX
  5
37C
330
368
100
AcDbEntity
  8
Sichtbare Kanten(TC_020513_DIN)
100
AcDbVertex
100
AcDb2dVertex
 10
120.6223201931159
 20
166.5095401234801
 30
0.0
  0
VERTEX
  5
37D
330
368
100
AcDbEntity
  8
Sichtbare Kanten(TC_020513_DIN)
100
AcDbVertex
100
AcDb2dVertex
 10
120.5947375476996
 20
166.5293586678679
 30
0.0
  0
VERTEX
  5
37E
330
368
100
AcDbEntity
  8
Sichtbare Kanten(TC_020513_DIN)
100
AcDbVertex
100
AcDb2dVertex
 10
120.5671739757697
 20
166.5456355042632
 30
0.0
  0
VERTEX
  5
37F
330
368
100
AcDbEntity
  8
Sichtbare Kanten(TC_020513_DIN)
100
AcDbVertex
100
AcDb2dVertex
 10
120.5396127880256
 20
166.5583432145293
 30
0.0
  0
VERTEX
  5
380
330
368
100
AcDbEntity
  8
Sichtbare Kanten(TC_020513_DIN)
100
AcDbVertex
100
AcDb2dVertex
 10
120.5120372951667
 20
166.5674531884367
 30
0.0
  0
VERTEX
  5
381
330
368
100
AcDbEntity
  8
Sichtbare Kanten(TC_020513_DIN)
100
AcDbVertex
100
AcDb2dVertex
 10
120.4844284237067
 20
166.5729391999419
 30
0.0
  0
VERTEX
  5
382
330
368
100
AcDbEntity
  8
Sichtbare Kanten(TC_020513_DIN)
100
AcDbVertex
100
AcDb2dVertex
 10
120.4567694843451
 20
166.5747738309081
 30
0.0
  0
SEQEND
  5
36B
330
368
100
AcDbEntity
  8
Sichtbare Kanten(TC_020513_DIN)
  0
POLYLINE
  5
383
330
37
100
AcDbEntity
  8
Sichtbare Kanten(TC_020513_DIN)
100
AcDb2dPolyline
 66
     1
 10
0.0
 20
0.0
 30
0.0
 70
   128
  0
VERTEX
  5
384
330
383
100
AcDbEntity
  8
Sichtbare Kanten(TC_020513_DIN)
100
AcDbVertex
100
AcDb2dVertex
 10
121.1190319240729
 20
166.12122063114
 30
0.0
  0
VERTEX
  5
385
330
383
100
AcDbEntity
  8
Sichtbare Kanten(TC_020513_DIN)
100
AcDbVertex
100
AcDb2dVertex
 10
121.135938185517
 20
166.0445487923796
 30
0.0
  0
VERTEX
  5
387
330
383
100
AcDbEntity
  8
Sichtbare Kanten(TC_020513_DIN)
100
AcDbVertex
100
AcDb2dVertex
 10
121.1540413082282
 20
165.9723043866331
 30
0.0
  0
VERTEX
  5
388
330
383
100
AcDbEntity
  8
Sichtbare Kanten(TC_020513_DIN)
100
AcDbVertex
100
AcDb2dVertex
 10
121.1730241954963
 20
165.9045076794798
 30
0.0
  0
VERTEX
  5
389
330
383
100
AcDbEntity
  8
Sichtbare Kanten(TC_020513_DIN)
100
AcDbVertex
100
AcDb2dVertex
 10
121.1925721347968
 20
165.8411753602202
 30
0.0
  0
VERTEX
  5
38A
330
383
100
AcDbEntity
  8
Sichtbare Kanten(TC_020513_DIN)
100
AcDbVertex
100
AcDb2dVertex
 10
121.212363261048
 20
165.7823288865263
 30
0.0
  0
VERTEX
  5
38B
330
383
100
AcDbEntity
  8
Sichtbare Kanten(TC_020513_DIN)
100
AcDbVertex
100
AcDb2dVertex
 10
121.2320852459113
 20
165.7279885239775
 30
0.0
  0
VERTEX
  5
38C
330
383
100
AcDbEntity
  8
Sichtbare Kanten(TC_020513_DIN)
100
AcDbVertex
100
AcDb2dVertex
 10
121.2514209926764
 20
165.6781721539671
 30
0.0
  0
VERTEX
  5
38D
330
383
100
AcDbEntity
  8
Sichtbare Kanten(TC_020513_DIN)
100
AcDbVertex
100
AcDb2dVertex
 10
121.270067709748
 20
165.6328642792876
 30
0.0
  0
VERTEX
  5
38E
330
383
100
AcDbEntity
  8
Sichtbare Kanten(TC_020513_DIN)
100
AcDbVertex
100
AcDb2dVertex
 10
121.2885904491584
 20
165.5902839131529
 30
0.0
  0
VERTEX
  5
38F
330
383
100
AcDbEntity
  8
Sichtbare Kanten(TC_020513_DIN)
100
AcDbVertex
100
AcDb2dVertex
 10
121.3073206127326
 20
165.5494392342741
 30
0.0
  0
VERTEX
  5
390
330
383
100
AcDbEntity
  8
Sichtbare Kanten(TC_020513_DIN)
100
AcDbVertex
100
AcDb2dVertex
 10
121.3261532962958
 20
165.5103588528807
 30
0.0
  0
VERTEX
  5
391
330
383
100
AcDbEntity
  8
Sichtbare Kanten(TC_020513_DIN)
100
AcDbVertex
100
AcDb2dVertex
 10
121.3449764431159
 20
165.4730678029234
 30
0.0
  0
VERTEX
  5
392
330
383
100
AcDbEntity
  8
Sichtbare Kanten(TC_020513_DIN)
100
AcDbVertex
100
AcDb2dVertex
 10
121.3636827648322
 20
165.4375935025389
 30
0.0
  0
VERTEX
  5
393
330
383
100
AcDbEntity
  8
Sichtbare Kanten(TC_020513_DIN)
100
AcDbVertex
100
AcDb2dVertex
 10
121.3821625888984
 20
165.403960985678
 30
0.0
  0
VERTEX
  5
394
330
383
100
AcDbEntity
  8
Sichtbare Kanten(TC_020513_DIN)
100
AcDbVertex
100
AcDb2dVertex
 10
121.400306242768
 20
165.3721964783843
 30
0.0
  0
VERTEX
  5
395
330
383
100
AcDbEntity
  8
Sichtbare Kanten(TC_020513_DIN)
100
AcDbVertex
100
AcDb2dVertex
 10
121.4180040538947
 20
165.3423285908873
 30
0.0
  0
VERTEX
  5
396
330
383
100
AcDbEntity
  8
Sichtbare Kanten(TC_020513_DIN)
100
AcDbVertex
100
AcDb2dVertex
 10
121.4351487339179
 20
165.314381165045
 30
0.0
  0
VERTEX
  5
397
330
383
100
AcDbEntity
  8
Sichtbare Kanten(TC_020513_DIN)
100
AcDbVertex
100
AcDb2dVertex
 10
121.4516282261054
 20
165.2883828110869
 30
0.0
  0
VERTEX
  5
398
330
383
100
AcDbEntity
  8
Sichtbare Kanten(TC_020513_DIN)
100
AcDbVertex
100
AcDb2dVertex
 10
121.4673352420966
 20
165.2643585629637
 30
0.0
  0
VERTEX
  5
399
330
383
100
AcDbEntity
  8
Sichtbare Kanten(TC_020513_DIN)
100
AcDbVertex
100
AcDb2dVertex
 10
121.4821601093451
 20
165.2423346467192
 30
0.0
  0
VERTEX
  5
39A
330
383
100
AcDbEntity
  8
Sichtbare Kanten(TC_020513_DIN)
100
AcDbVertex
100
AcDb2dVertex
 10
121.4959955394904
 20
165.2223372883971
 30
0.0
  0
VERTEX
  5
39B
330
383
100
AcDbEntity
  8
Sichtbare Kanten(TC_020513_DIN)
100
AcDbVertex
100
AcDb2dVertex
 10
121.5087294758002
 20
165.2043950982268
 30
0.0
  0
VERTEX
  5
39C
330
383
100
AcDbEntity
  8
Sichtbare Kanten(TC_020513_DIN)
100
AcDbVertex
100
AcDb2dVertex
 10
121.520254629914
 20
165.1885307259734
 30
0.0
  0
VERTEX
  5
39D
330
383
100
AcDbEntity
  8
Sichtbare Kanten(TC_020513_DIN)
100
AcDbVertex
100
AcDb2dVertex
 10
121.5304589450995
 20
165.1747739739592
 30
0.0
  0
SEQEND
  5
386
330
383
100
AcDbEntity
  8
Sichtbare Kanten(TC_020513_DIN)
  0
POLYLINE
  5
39E
330
37
100
AcDbEntity
  8
Sichtbare Kanten(TC_020513_DIN)
100
AcDb2dPolyline
 66
     1
 10
0.0
 20
0.0
 30
0.0
 70
   128
  0
VERTEX
  5
39F
330
39E
100
AcDbEntity
  8
Sichtbare Kanten(TC_020513_DIN)
100
AcDbVertex
100
AcDb2dVertex
 10
120.4567694843451
 20
167.9747736878569
 30
0.0
  0
VERTEX
  5
3A0
330
39E
100
AcDbEntity
  8
Sichtbare Kanten(TC_020513_DIN)
100
AcDbVertex
100
AcDb2dVertex
 10
120.4843998134772
 20
167.9711115784819
 30
0.0
  0
VERTEX
  5
3A2
330
39E
100
AcDbEntity
  8
Sichtbare Kanten(TC_020513_DIN)
100
AcDbVertex
100
AcDb2dVertex
 10
120.5119800747077
 20
167.9601633973295
 30
0.0
  0
VERTEX
  5
3A3
330
39E
100
AcDbEntity
  8
Sichtbare Kanten(TC_020513_DIN)
100
AcDbVertex
100
AcDb2dVertex
 10
120.5395245731513
 20
167.9419815964873
 30
0.0
  0
VERTEX
  5
3A4
330
39E
100
AcDbEntity
  8
Sichtbare Kanten(TC_020513_DIN)
100
AcDbVertex
100
AcDb2dVertex
 10
120.5670523822943
 20
167.916623396414
 30
0.0
  0
VERTEX
  5
3A5
330
39E
100
AcDbEntity
  8
Sichtbare Kanten(TC_020513_DIN)
100
AcDbVertex
100
AcDb2dVertex
 10
120.594584959809
 20
167.884143633383
 30
0.0
  0
VERTEX
  5
3A6
330
39E
100
AcDbEntity
  8
Sichtbare Kanten(TC_020513_DIN)
100
AcDbVertex
100
AcDb2dVertex
 10
120.6221342266242
 20
167.8445959515745
 30
0.0
  0
VERTEX
  5
3A7
330
39E
100
AcDbEntity
  8
Sichtbare Kanten(TC_020513_DIN)
100
AcDbVertex
100
AcDb2dVertex
 10
120.6497240245978
 20
167.7980387635405
 30
0.0
  0
VERTEX
  5
3A8
330
39E
100
AcDbEntity
  8
Sichtbare Kanten(TC_020513_DIN)
100
AcDbVertex
100
AcDb2dVertex
 10
120.6773638904731
 20
167.7445316739256
 30
0.0
  0
VERTEX
  5
3A9
330
39E
100
AcDbEntity
  8
Sichtbare Kanten(TC_020513_DIN)
100
AcDbVertex
100
AcDb2dVertex
 10
120.7049822986762
 20
167.6843524403746
 30
0.0
  0
VERTEX
  5
3AA
330
39E
100
AcDbEntity
  8
Sichtbare Kanten(TC_020513_DIN)
100
AcDbVertex
100
AcDb2dVertex
 10
120.7325506389777
 20
167.6177359051878
 30
0.0
  0
VERTEX
  5
3AB
330
39E
100
AcDbEntity
  8
Sichtbare Kanten(TC_020513_DIN)
100
AcDbVertex
100
AcDb2dVertex
 10
120.7600903690497
 20
167.5448382325346
 30
0.0
  0
VERTEX
  5
3AC
330
39E
100
AcDbEntity
  8
Sichtbare Kanten(TC_020513_DIN)
100
AcDbVertex
100
AcDb2dVertex
 10
120.7876181781928
 20
167.4658167786772
 30
0.0
  0
VERTEX
  5
3AD
330
39E
100
AcDbEntity
  8
Sichtbare Kanten(TC_020513_DIN)
100
AcDbVertex
100
AcDb2dVertex
 10
120.8151531398932
 20
167.380826515692
 30
0.0
  0
VERTEX
  5
3AE
330
39E
100
AcDbEntity
  8
Sichtbare Kanten(TC_020513_DIN)
100
AcDbVertex
100
AcDb2dVertex
 10
120.8427119434516
 20
167.2900271840269
 30
0.0
  0
VERTEX
  5
3AF
330
39E
100
AcDbEntity
  8
Sichtbare Kanten(TC_020513_DIN)
100
AcDbVertex
100
AcDb2dVertex
 10
120.8703112781684
 20
167.1935737557585
 30
0.0
  0
VERTEX
  5
3B0
330
39E
100
AcDbEntity
  8
Sichtbare Kanten(TC_020513_DIN)
100
AcDbVertex
100
AcDb2dVertex
 10
120.897958296601
 20
167.0916665024931
 30
0.0
  0
VERTEX
  5
3B1
330
39E
100
AcDbEntity
  8
Sichtbare Kanten(TC_020513_DIN)
100
AcDbVertex
100
AcDb2dVertex
 10
120.9255933941047
 20
166.984794182318
 30
0.0
  0
VERTEX
  5
3B2
330
39E
100
AcDbEntity
  8
Sichtbare Kanten(TC_020513_DIN)
100
AcDbVertex
100
AcDb2dVertex
 10
120.9532165706794
 20
166.8732345528777
 30
0.0
  0
VERTEX
  5
3B3
330
39E
100
AcDbEntity
  8
Sichtbare Kanten(TC_020513_DIN)
100
AcDbVertex
100
AcDb2dVertex
 10
120.9808445156256
 20
166.7572081513579
 30
0.0
  0
VERTEX
  5
3B4
330
39E
100
AcDbEntity
  8
Sichtbare Kanten(TC_020513_DIN)
100
AcDbVertex
100
AcDb2dVertex
 10
121.0084963024298
 20
166.6369450516875
 30
0.0
  0
VERTEX
  5
3B5
330
39E
100
AcDbEntity
  8
Sichtbare Kanten(TC_020513_DIN)
100
AcDbVertex
100
AcDb2dVertex
 10
121.0361361683051
 20
166.5129030175383
 30
0.0
  0
VERTEX
  5
3B6
330
39E
100
AcDbEntity
  8
Sichtbare Kanten(TC_020513_DIN)
100
AcDbVertex
100
AcDb2dVertex
 10
121.0637593448798
 20
166.3854325242216
 30
0.0
  0
VERTEX
  5
3B7
330
39E
100
AcDbEntity
  8
Sichtbare Kanten(TC_020513_DIN)
100
AcDbVertex
100
AcDb2dVertex
 10
121.0913849056403
 20
166.2547874875243
 30
0.0
  0
VERTEX
  5
3B8
330
39E
100
AcDbEntity
  8
Sichtbare Kanten(TC_020513_DIN)
100
AcDbVertex
100
AcDb2dVertex
 10
121.1190319240729
 20
166.12122063114
 30
0.0
  0
SEQEND
  5
3A1
330
39E
100
AcDbEntity
  8
Sichtbare Kanten(TC_020513_DIN)
  0
LINE
  5
3B9
330
37
100
AcDbEntity
  8
Sichtbare Kanten(TC_020513_DIN)
100
AcDbLine
 10
120.4567706256914
 20
167.1907752805066
 30
0.0
 11
120.4567706256914
 21
167.974774150226
 31
0.0
  0
LINE
  5
3BA
330
37
100
AcDbEntity
  8
Sichtbare Kanten(TC_020513_DIN)
100
AcDbLine
 10
120.4567706256914
 20
166.574774150226
 30
0.0
 11
120.4567706256914
 21
167.1907752805066
 31
0.0
  0
POLYLINE
  5
3BB
330
37
100
AcDbEntity
  8
Sichtbare Kanten(TC_020513_DIN)
100
AcDb2dPolyline
 66
     1
 10
0.0
 20
0.0
 30
0.0
 70
   128
  0
VERTEX
  5
3BC
330
3BB
100
AcDbEntity
  8
Sichtbare Kanten(TC_020513_DIN)
100
AcDbVertex
100
AcDb2dVertex
 10
121.7223406017463
 20
154.6062940783674
 30
0.0
  0
VERTEX
  5
3BD
330
3BB
100
AcDbEntity
  8
Sichtbare Kanten(TC_020513_DIN)
100
AcDbVertex
100
AcDb2dVertex
 10
121.7321682155768
 20
154.6294761128599
 30
0.0
  0
VERTEX
  5
3BF
330
3BB
100
AcDbEntity
  8
Sichtbare Kanten(TC_020513_DIN)
100
AcDbVertex
100
AcDb2dVertex
 10
121.7419934452216
 20
154.6528369612867
 30
0.0
  0
VERTEX
  5
3C0
330
3BB
100
AcDbEntity
  8
Sichtbare Kanten(TC_020513_DIN)
100
AcDbVertex
100
AcDb2dVertex
 10
121.7518139064948
 20
154.676370067137
 30
0.0
  0
VERTEX
  5
3C1
330
3BB
100
AcDbEntity
  8
Sichtbare Kanten(TC_020513_DIN)
100
AcDbVertex
100
AcDb2dVertex
 10
121.7616319835822
 20
154.7000694699461
 30
0.0
  0
VERTEX
  5
3C2
330
3BB
100
AcDbEntity
  8
Sichtbare Kanten(TC_020513_DIN)
100
AcDbVertex
100
AcDb2dVertex
 10
121.7714500606696
 20
154.7239298052961
 30
0.0
  0
VERTEX
  5
3C3
330
3BB
100
AcDbEntity
  8
Sichtbare Kanten(TC_020513_DIN)
100
AcDbVertex
100
AcDb2dVertex
 10
121.7812657535712
 20
154.7479445166761
 30
0.0
  0
VERTEX
  5
3C4
330
3BB
100
AcDbEntity
  8
Sichtbare Kanten(TC_020513_DIN)
100
AcDbVertex
100
AcDb2dVertex
 10
121.7910814464728
 20
154.7721076436216
 30
0.0
  0
VERTEX
  5
3C5
330
3BB
100
AcDbEntity
  8
Sichtbare Kanten(TC_020513_DIN)
100
AcDbVertex
100
AcDb2dVertex
 10
121.8008971393744
 20
154.7964138217146
 30
0.0
  0
VERTEX
  5
3C6
330
3BB
100
AcDbEntity
  8
Sichtbare Kanten(TC_020513_DIN)
100
AcDbVertex
100
AcDb2dVertex
 10
121.8107176006476
 20
154.8208564944441
 30
0.0
  0
VERTEX
  5
3C7
330
3BB
100
AcDbEntity
  8
Sichtbare Kanten(TC_020513_DIN)
100
AcDbVertex
100
AcDb2dVertex
 10
121.8205380619208
 20
154.8454297013456
 30
0.0
  0
VERTEX
  5
3C8
330
3BB
100
AcDbEntity
  8
Sichtbare Kanten(TC_020513_DIN)
100
AcDbVertex
100
AcDb2dVertex
 10
121.8303609073798
 20
154.8701274819548
 30
0.0
  0
VERTEX
  5
3C9
330
3BB
100
AcDbEntity
  8
Sichtbare Kanten(TC_020513_DIN)
100
AcDbVertex
100
AcDb2dVertex
 10
121.8401909053962
 20
154.8949444718535
 30
0.0
  0
VERTEX
  5
3CA
330
3BB
100
AcDbEntity
  8
Sichtbare Kanten(TC_020513_DIN)
100
AcDbVertex
100
AcDb2dVertex
 10
121.8500185192267
 20
154.9198615975553
 30
0.0
  0
VERTEX
  5
3CB
330
3BB
100
AcDbEntity
  8
Sichtbare Kanten(TC_020513_DIN)
100
AcDbVertex
100
AcDb2dVertex
 10
121.8598437488715
 20
154.9448597855741
 30
0.0
  0
VERTEX
  5
3CC
330
3BB
100
AcDbEntity
  8
Sichtbare Kanten(TC_020513_DIN)
100
AcDbVertex
100
AcDb2dVertex
 10
121.8696642101447
 20
154.9699342675383
 30
0.0
  0
VERTEX
  5
3CD
330
3BB
100
AcDbEntity
  8
Sichtbare Kanten(TC_020513_DIN)
100
AcDbVertex
100
AcDb2dVertex
 10
121.8794822872321
 20
154.9950772948439
 30
0.0
  0
VERTEX
  5
3CE
330
3BB
100
AcDbEntity
  8
Sichtbare Kanten(TC_020513_DIN)
100
AcDbVertex
100
AcDb2dVertex
 10
121.8892979801337
 20
155.0202835030729
 30
0.0
  0
VERTEX
  5
3CF
330
3BB
100
AcDbEntity
  8
Sichtbare Kanten(TC_020513_DIN)
100
AcDbVertex
100
AcDb2dVertex
 10
121.8991160572211
 20
155.0455463357145
 30
0.0
  0
VERTEX
  5
3D0
330
3BB
100
AcDbEntity
  8
Sichtbare Kanten(TC_020513_DIN)
100
AcDbVertex
100
AcDb2dVertex
 10
121.9089317501227
 20
155.0708592362578
 30
0.0
  0
VERTEX
  5
3D1
330
3BB
100
AcDbEntity
  8
Sichtbare Kanten(TC_020513_DIN)
100
AcDbVertex
100
AcDb2dVertex
 10
121.9187474430243
 20
155.0962162442381
 30
0.0
  0
VERTEX
  5
3D2
330
3BB
100
AcDbEntity
  8
Sichtbare Kanten(TC_020513_DIN)
100
AcDbVertex
100
AcDb2dVertex
 10
121.9285679042975
 20
155.1216113991911
 30
0.0
  0
VERTEX
  5
3D3
330
3BB
100
AcDbEntity
  8
Sichtbare Kanten(TC_020513_DIN)
100
AcDbVertex
100
AcDb2dVertex
 10
121.9383883655707
 20
155.1470375485594
 30
0.0
  0
VERTEX
  5
3D4
330
3BB
100
AcDbEntity
  8
Sichtbare Kanten(TC_020513_DIN)
100
AcDbVertex
100
AcDb2dVertex
 10
121.9482112110297
 20
155.1724893279249
 30
0.0
  0
VERTEX
  5
3D5
330
3BB
100
AcDbEntity
  8
Sichtbare Kanten(TC_020513_DIN)
100
AcDbVertex
100
AcDb2dVertex
 10
121.9580412090461
 20
155.1979595847303
 30
0.0
  0
SEQEND
  5
3BE
330
3BB
100
AcDbEntity
  8
Sichtbare Kanten(TC_020513_DIN)
  0
POLYLINE
  5
3D6
330
37
100
AcDbEntity
  8
Sichtbare Kanten(TC_020513_DIN)
100
AcDb2dPolyline
 66
     1
 10
0.0
 20
0.0
 30
0.0
 70
   128
  0
VERTEX
  5
3D7
330
3D6
100
AcDbEntity
  8
Sichtbare Kanten(TC_020513_DIN)
100
AcDbVertex
100
AcDb2dVertex
 10
121.9580412090461
 20
155.1979595847303
 30
0.0
  0
VERTEX
  5
3D8
330
3D6
100
AcDbEntity
  8
Sichtbare Kanten(TC_020513_DIN)
100
AcDbVertex
100
AcDb2dVertex
 10
121.9482112110297
 20
155.1470184750731
 30
0.0
  0
VERTEX
  5
3DA
330
3D6
100
AcDbEntity
  8
Sichtbare Kanten(TC_020513_DIN)
100
AcDbVertex
100
AcDb2dVertex
 10
121.9383883655707
 20
155.0961155123884
 30
0.0
  0
VERTEX
  5
3DB
330
3D6
100
AcDbEntity
  8
Sichtbare Kanten(TC_020513_DIN)
100
AcDbVertex
100
AcDb2dVertex
 10
121.9285679042975
 20
155.0452626176054
 30
0.0
  0
VERTEX
  5
3DC
330
3D6
100
AcDbEntity
  8
Sichtbare Kanten(TC_020513_DIN)
100
AcDbVertex
100
AcDb2dVertex
 10
121.9187474430243
 20
154.9944729037459
 30
0.0
  0
VERTEX
  5
3DD
330
3D6
100
AcDbEntity
  8
Sichtbare Kanten(TC_020513_DIN)
100
AcDbVertex
100
AcDb2dVertex
 10
121.9089317501227
 20
154.9437588877851
 30
0.0
  0
VERTEX
  5
3DE
330
3D6
100
AcDbEntity
  8
Sichtbare Kanten(TC_020513_DIN)
100
AcDbVertex
100
AcDb2dVertex
 10
121.8991160572211
 20
154.8931324906523
 30
0.0
  0
VERTEX
  5
3DF
330
3D6
100
AcDbEntity
  8
Sichtbare Kanten(TC_020513_DIN)
100
AcDbVertex
100
AcDb2dVertex
 10
121.8892979801337
 20
154.8426068253691
 30
0.0
  0
VERTEX
  5
3E0
330
3D6
100
AcDbEntity
  8
Sichtbare Kanten(TC_020513_DIN)
100
AcDbVertex
100
AcDb2dVertex
 10
121.8794822872321
 20
154.7921950049574
 30
0.0
  0
VERTEX
  5
3E1
330
3D6
100
AcDbEntity
  8
Sichtbare Kanten(TC_020513_DIN)
100
AcDbVertex
100
AcDb2dVertex
 10
121.8696642101447
 20
154.7419083542997
 30
0.0
  0
VERTEX
  5
3E2
330
3D6
100
AcDbEntity
  8
Sichtbare Kanten(TC_020513_DIN)
100
AcDbVertex
100
AcDb2dVertex
 10
121.8598437488715
 20
154.691759986418
 30
0.0
  0
VERTEX
  5
3E3
330
3D6
100
AcDbEntity
  8
Sichtbare Kanten(TC_020513_DIN)
100
AcDbVertex
100
AcDb2dVertex
 10
121.8500185192267
 20
154.6417630143339
 30
0.0
  0
VERTEX
  5
3E4
330
3D6
100
AcDbEntity
  8
Sichtbare Kanten(TC_020513_DIN)
100
AcDbVertex
100
AcDb2dVertex
 10
121.8401909053962
 20
154.5919287629301
 30
0.0
  0
VERTEX
  5
3E5
330
3D6
100
AcDbEntity
  8
Sichtbare Kanten(TC_020513_DIN)
100
AcDbVertex
100
AcDb2dVertex
 10
121.8303609073798
 20
154.5422953791792
 30
0.0
  0
VERTEX
  5
3E6
330
3D6
100
AcDbEntity
  8
Sichtbare Kanten(TC_020513_DIN)
100
AcDbVertex
100
AcDb2dVertex
 10
121.8205380619208
 20
154.4928998179609
 30
0.0
  0
VERTEX
  5
3E7
330
3D6
100
AcDbEntity
  8
Sichtbare Kanten(TC_020513_DIN)
100
AcDbVertex
100
AcDb2dVertex
 10
121.8107176006476
 20
154.4437534041578
 30
0.0
  0
VERTEX
  5
3E8
330
3D6
100
AcDbEntity
  8
Sichtbare Kanten(TC_020513_DIN)
100
AcDbVertex
100
AcDb2dVertex
 10
121.8008971393744
 20
154.3948680586989
 30
0.0
  0
VERTEX
  5
3E9
330
3D6
100
AcDbEntity
  8
Sichtbare Kanten(TC_020513_DIN)
100
AcDbVertex
100
AcDb2dVertex
 10
121.7910814464728
 20
154.3462560005362
 30
0.0
  0
VERTEX
  5
3EA
330
3D6
100
AcDbEntity
  8
Sichtbare Kanten(TC_020513_DIN)
100
AcDbVertex
100
AcDb2dVertex
 10
121.7812657535712
 20
154.2979294486219
 30
0.0
  0
VERTEX
  5
3EB
330
3D6
100
AcDbEntity
  8
Sichtbare Kanten(TC_020513_DIN)
100
AcDbVertex
100
AcDb2dVertex
 10
121.7714500606696
 20
154.2498997278387
 30
0.0
  0
VERTEX
  5
3EC
330
3D6
100
AcDbEntity
  8
Sichtbare Kanten(TC_020513_DIN)
100
AcDbVertex
100
AcDb2dVertex
 10
121.7616319835822
 20
154.2021793551619
 30
0.0
  0
VERTEX
  5
3ED
330
3D6
100
AcDbEntity
  8
Sichtbare Kanten(TC_020513_DIN)
100
AcDbVertex
100
AcDb2dVertex
 10
121.7518139064948
 20
154.1547802515204
 30
0.0
  0
VERTEX
  5
3EE
330
3D6
100
AcDbEntity
  8
Sichtbare Kanten(TC_020513_DIN)
100
AcDbVertex
100
AcDb2dVertex
 10
121.7419934452216
 20
154.1077140398199
 30
0.0
  0
VERTEX
  5
3EF
330
3D6
100
AcDbEntity
  8
Sichtbare Kanten(TC_020513_DIN)
100
AcDbVertex
100
AcDb2dVertex
 10
121.7321682155768
 20
154.0609929390127
 30
0.0
  0
VERTEX
  5
3F0
330
3D6
100
AcDbEntity
  8
Sichtbare Kanten(TC_020513_DIN)
100
AcDbVertex
100
AcDb2dVertex
 10
121.7223406017463
 20
154.0146285720045
 30
0.0
  0
SEQEND
  5
3D9
330
3D6
100
AcDbEntity
  8
Sichtbare Kanten(TC_020513_DIN)
  0
LINE
  5
3F1
330
37
100
AcDbEntity
  8
Sichtbare Kanten(TC_020513_DIN)
100
AcDbLine
 10
121.7223399067346
 20
154.3459597751445
 30
0.0
 11
121.7223399067346
 21
154.6062942527008
 31
0.0
  0
LINE
  5
3F2
330
37
100
AcDbEntity
  8
Sichtbare Kanten(TC_020513_DIN)
100
AcDbLine
 10
121.7223399067346
 20
154.0146286862639
 30
0.0
 11
121.7223399067346
 21
154.3459597751445
 31
0.0
  0
POLYLINE
  5
3F3
330
37
100
AcDbEntity
  8
Sichtbare Kanten(TC_020513_DIN)
100
AcDb2dPolyline
 66
     1
 10
0.0
 20
0.0
 30
0.0
 70
   128
  0
VERTEX
  5
3F4
330
3F3
100
AcDbEntity
  8
Sichtbare Kanten(TC_020513_DIN)
100
AcDbVertex
100
AcDb2dVertex
 10
134.8345565975348
 20
167.1933925576384
 30
0.0
  0
VERTEX
  5
3F5
330
3F3
100
AcDbEntity
  8
Sichtbare Kanten(TC_020513_DIN)
100
AcDbVertex
100
AcDb2dVertex
 10
134.8344850719611
 20
167.1844649739439
 30
0.0
  0
VERTEX
  5
3F7
330
3F3
100
AcDbEntity
  8
Sichtbare Kanten(TC_020513_DIN)
100
AcDbVertex
100
AcDb2dVertex
 10
134.8342657268683
 20
167.1755361981566
 30
0.0
  0
VERTEX
  5
3F8
330
3F3
100
AcDbEntity
  8
Sichtbare Kanten(TC_020513_DIN)
100
AcDbVertex
100
AcDb2dVertex
 10
134.8338985622565
 20
167.1666086144621
 30
0.0
  0
VERTEX
  5
3F9
330
3F3
100
AcDbEntity
  8
Sichtbare Kanten(TC_020513_DIN)
100
AcDbVertex
100
AcDb2dVertex
 10
134.8333883464972
 20
167.1576810307677
 30
0.0
  0
VERTEX
  5
3FA
330
3F3
100
AcDbEntity
  8
Sichtbare Kanten(TC_020513_DIN)
100
AcDbVertex
100
AcDb2dVertex
 10
134.8327303112189
 20
167.1487546391661
 30
0.0
  0
VERTEX
  5
3FB
330
3F3
100
AcDbEntity
  8
Sichtbare Kanten(TC_020513_DIN)
100
AcDbVertex
100
AcDb2dVertex
 10
134.8319244564216
 20
167.1398282475645
 30
0.0
  0
VERTEX
  5
3FC
330
3F3
100
AcDbEntity
  8
Sichtbare Kanten(TC_020513_DIN)
100
AcDbVertex
100
AcDb2dVertex
 10
134.8309755504767
 20
167.1309006638701
 30
0.0
  0
VERTEX
  5
3FD
330
3F3
100
AcDbEntity
  8
Sichtbare Kanten(TC_020513_DIN)
100
AcDbVertex
100
AcDb2dVertex
 10
134.8298788250129
 20
167.1219742722685
 30
0.0
  0
VERTEX
  5
3FE
330
3F3
100
AcDbEntity
  8
Sichtbare Kanten(TC_020513_DIN)
100
AcDbVertex
100
AcDb2dVertex
 10
134.82863428003
 20
167.1130466885741
 30
0.0
  0
VERTEX
  5
3FF
330
3F3
100
AcDbEntity
  8
Sichtbare Kanten(TC_020513_DIN)
100
AcDbVertex
100
AcDb2dVertex
 10
134.8272466838996
 20
167.1041191048796
 30
0.0
  0
VERTEX
  5
400
330
3F3
100
AcDbEntity
  8
Sichtbare Kanten(TC_020513_DIN)
100
AcDbVertex
100
AcDb2dVertex
 10
134.8257160366217
 20
167.0951903290923
 30
0.0
  0
VERTEX
  5
401
330
3F3
100
AcDbEntity
  8
Sichtbare Kanten(TC_020513_DIN)
100
AcDbVertex
100
AcDb2dVertex
 10
134.8240328014533
 20
167.0862627453978
 30
0.0
  0
VERTEX
  5
402
330
3F3
100
AcDbEntity
  8
Sichtbare Kanten(TC_020513_DIN)
100
AcDbVertex
100
AcDb2dVertex
 10
134.8222065151374
 20
167.0773339696104
 30
0.0
  0
VERTEX
  5
403
330
3F3
100
AcDbEntity
  8
Sichtbare Kanten(TC_020513_DIN)
100
AcDbVertex
100
AcDb2dVertex
 10
134.820237177674
 20
167.0684051938231
 30
0.0
  0
VERTEX
  5
404
330
3F3
100
AcDbEntity
  8
Sichtbare Kanten(TC_020513_DIN)
100
AcDbVertex
100
AcDb2dVertex
 10
134.8181200206916
 20
167.0594776101286
 30
0.0
  0
VERTEX
  5
405
330
3F3
100
AcDbEntity
  8
Sichtbare Kanten(TC_020513_DIN)
100
AcDbVertex
100
AcDb2dVertex
 10
134.8158550441901
 20
167.0505512185271
 30
0.0
  0
VERTEX
  5
406
330
3F3
100
AcDbEntity
  8
Sichtbare Kanten(TC_020513_DIN)
100
AcDbVertex
100
AcDb2dVertex
 10
134.8134517849128
 20
167.0416236348326
 30
0.0
  0
VERTEX
  5
407
330
3F3
100
AcDbEntity
  8
Sichtbare Kanten(TC_020513_DIN)
100
AcDbVertex
100
AcDb2dVertex
 10
134.8108959377448
 20
167.032697243231
 30
0.0
  0
VERTEX
  5
408
330
3F3
100
AcDbEntity
  8
Sichtbare Kanten(TC_020513_DIN)
100
AcDbVertex
100
AcDb2dVertex
 10
134.8082018078009
 20
167.0237696595366
 30
0.0
  0
VERTEX
  5
409
330
3F3
100
AcDbEntity
  8
Sichtbare Kanten(TC_020513_DIN)
100
AcDbVertex
100
AcDb2dVertex
 10
134.8053550899665
 20
167.014843267935
 30
0.0
  0
VERTEX
  5
40A
330
3F3
100
AcDbEntity
  8
Sichtbare Kanten(TC_020513_DIN)
100
AcDbVertex
100
AcDb2dVertex
 10
134.8023700893561
 20
167.0059156842406
 30
0.0
  0
VERTEX
  5
40B
330
3F3
100
AcDbEntity
  8
Sichtbare Kanten(TC_020513_DIN)
100
AcDbVertex
100
AcDb2dVertex
 10
134.7992372692267
 20
166.9969881005461
 30
0.0
  0
VERTEX
  5
40C
330
3F3
100
AcDbEntity
  8
Sichtbare Kanten(TC_020513_DIN)
100
AcDbVertex
100
AcDb2dVertex
 10
134.7959613979499
 20
166.9880605168517
 30
0.0
  0
VERTEX
  5
40D
330
3F3
100
AcDbEntity
  8
Sichtbare Kanten(TC_020513_DIN)
100
AcDbVertex
100
AcDb2dVertex
 10
134.7925424755256
 20
166.9791317410643
 30
0.0
  0
SEQEND
  5
3F6
330
3F3
100
AcDbEntity
  8
Sichtbare Kanten(TC_020513_DIN)
  0
LINE
  5
40E
330
37
100
AcDbEntity
  8
Sichtbare Kanten(TC_020513_DIN)
100
AcDbLine
 10
134.0505594639883
 20
167.1933930968316
 30
0.0
 11
134.8345575512091
 21
167.1933930968316
 31
0.0
  0
LINE
  5
40F
330
37
100
AcDbEntity
  8
Sichtbare Kanten(TC_020513_DIN)
100
AcDbLine
 10
133.4345575512091
 20
167.1933930968316
 30
0.0
 11
134.0505594639883
 21
167.1933930968316
 31
0.0
  0
POLYLINE
  5
410
330
37
100
AcDbEntity
  8
Sichtbare Kanten(TC_020513_DIN)
100
AcDb2dPolyline
 66
     1
 10
0.0
 20
0.0
 30
0.0
 70
   128
  0
VERTEX
  5
411
330
410
100
AcDbEntity
  8
Sichtbare Kanten(TC_020513_DIN)
100
AcDbVertex
100
AcDb2dVertex
 10
133.4135484874884
 20
166.9791317410643
 30
0.0
  0
VERTEX
  5
412
330
410
100
AcDbEntity
  8
Sichtbare Kanten(TC_020513_DIN)
100
AcDbVertex
100
AcDb2dVertex
 10
133.4152603328864
 20
166.9880605168517
 30
0.0
  0
VERTEX
  5
414
330
410
100
AcDbEntity
  8
Sichtbare Kanten(TC_020513_DIN)
100
AcDbVertex
100
AcDb2dVertex
 10
133.416895884339
 20
166.9969881005461
 30
0.0
  0
VERTEX
  5
415
330
410
100
AcDbEntity
  8
Sichtbare Kanten(TC_020513_DIN)
100
AcDbVertex
100
AcDb2dVertex
 10
133.4184646785895
 20
167.0059156842406
 30
0.0
  0
VERTEX
  5
416
330
410
100
AcDbEntity
  8
Sichtbare Kanten(TC_020513_DIN)
100
AcDbVertex
100
AcDb2dVertex
 10
133.4199571788947
 20
167.014843267935
 30
0.0
  0
VERTEX
  5
417
330
410
100
AcDbEntity
  8
Sichtbare Kanten(TC_020513_DIN)
100
AcDbVertex
100
AcDb2dVertex
 10
133.4213781536261
 20
167.0237696595366
 30
0.0
  0
VERTEX
  5
418
330
410
100
AcDbEntity
  8
Sichtbare Kanten(TC_020513_DIN)
100
AcDbVertex
100
AcDb2dVertex
 10
133.4227276027839
 20
167.032697243231
 30
0.0
  0
VERTEX
  5
419
330
410
100
AcDbEntity
  8
Sichtbare Kanten(TC_020513_DIN)
100
AcDbVertex
100
AcDb2dVertex
 10
133.4240055263678
 20
167.0416236348326
 30
0.0
  0
VERTEX
  5
41A
330
410
100
AcDbEntity
  8
Sichtbare Kanten(TC_020513_DIN)
100
AcDbVertex
100
AcDb2dVertex
 10
133.4252071560065
 20
167.0505512185271
 30
0.0
  0
VERTEX
  5
41B
330
410
100
AcDbEntity
  8
Sichtbare Kanten(TC_020513_DIN)
100
AcDbVertex
100
AcDb2dVertex
 10
133.4263372600714
 20
167.0594776101286
 30
0.0
  0
VERTEX
  5
41C
330
410
100
AcDbEntity
  8
Sichtbare Kanten(TC_020513_DIN)
100
AcDbVertex
100
AcDb2dVertex
 10
133.4273958385627
 20
167.0684051938231
 30
0.0
  0
VERTEX
  5
41D
330
410
100
AcDbEntity
  8
Sichtbare Kanten(TC_020513_DIN)
100
AcDbVertex
100
AcDb2dVertex
 10
133.4283828914802
 20
167.0773339696104
 30
0.0
  0
VERTEX
  5
41E
330
410
100
AcDbEntity
  8
Sichtbare Kanten(TC_020513_DIN)
100
AcDbVertex
100
AcDb2dVertex
 10
133.4292936504523
 20
167.0862627453978
 30
0.0
  0
VERTEX
  5
41F
330
410
100
AcDbEntity
  8
Sichtbare Kanten(TC_020513_DIN)
100
AcDbVertex
100
AcDb2dVertex
 10
133.4301376522223
 20
167.0951903290923
 30
0.0
  0
VERTEX
  5
420
330
410
100
AcDbEntity
  8
Sichtbare Kanten(TC_020513_DIN)
100
AcDbVertex
100
AcDb2dVertex
 10
133.4309005916755
 20
167.1041191048796
 30
0.0
  0
VERTEX
  5
421
330
410
100
AcDbEntity
  8
Sichtbare Kanten(TC_020513_DIN)
100
AcDbVertex
100
AcDb2dVertex
 10
133.4315967739264
 20
167.1130466885741
 30
0.0
  0
VERTEX
  5
422
330
410
100
AcDbEntity
  8
Sichtbare Kanten(TC_020513_DIN)
100
AcDbVertex
100
AcDb2dVertex
 10
133.4322166622321
 20
167.1219742722685
 30
0.0
  0
VERTEX
  5
423
330
410
100
AcDbEntity
  8
Sichtbare Kanten(TC_020513_DIN)
100
AcDbVertex
100
AcDb2dVertex
 10
133.432765024964
 20
167.1309006638701
 30
0.0
  0
VERTEX
  5
424
330
410
100
AcDbEntity
  8
Sichtbare Kanten(TC_020513_DIN)
100
AcDbVertex
100
AcDb2dVertex
 10
133.4332418621222
 20
167.1398282475645
 30
0.0
  0
VERTEX
  5
425
330
410
100
AcDbEntity
  8
Sichtbare Kanten(TC_020513_DIN)
100
AcDbVertex
100
AcDb2dVertex
 10
133.4336424053351
 20
167.1487546391661
 30
0.0
  0
VERTEX
  5
426
330
410
100
AcDbEntity
  8
Sichtbare Kanten(TC_020513_DIN)
100
AcDbVertex
100
AcDb2dVertex
 10
133.4339714229743
 20
167.1576810307677
 30
0.0
  0
VERTEX
  5
427
330
410
100
AcDbEntity
  8
Sichtbare Kanten(TC_020513_DIN)
100
AcDbVertex
100
AcDb2dVertex
 10
133.4342289150397
 20
167.1666086144621
 30
0.0
  0
VERTEX
  5
428
330
410
100
AcDbEntity
  8
Sichtbare Kanten(TC_020513_DIN)
100
AcDbVertex
100
AcDb2dVertex
 10
133.4344101131598
 20
167.1755361981566
 30
0.0
  0
VERTEX
  5
429
330
410
100
AcDbEntity
  8
Sichtbare Kanten(TC_020513_DIN)
100
AcDbVertex
100
AcDb2dVertex
 10
133.4345197857062
 20
167.1844649739439
 30
0.0
  0
VERTEX
  5
42A
330
410
100
AcDbEntity
  8
Sichtbare Kanten(TC_020513_DIN)
100
AcDbVertex
100
AcDb2dVertex
 10
133.4345579326789
 20
167.1933925576384
 30
0.0
  0
SEQEND
  5
413
330
410
100
AcDbEntity
  8
Sichtbare Kanten(TC_020513_DIN)
  0
POLYLINE
  5
42B
330
37
100
AcDbEntity
  8
Sichtbare Kanten(TC_020513_DIN)
100
AcDb2dPolyline
 66
     1
 10
0.0
 20
0.0
 30
0.0
 70
   128
  0
VERTEX
  5
42C
330
42B
100
AcDbEntity
  8
Sichtbare Kanten(TC_020513_DIN)
100
AcDbVertex
100
AcDb2dVertex
 10
134.7925424755256
 20
166.9791317410643
 30
0.0
  0
VERTEX
  5
42D
330
42B
100
AcDbEntity
  8
Sichtbare Kanten(TC_020513_DIN)
100
AcDbVertex
100
AcDb2dVertex
 10
134.7888994396369
 20
166.9701016373808
 30
0.0
  0
VERTEX
  5
42F
330
42B
100
AcDbEntity
  8
Sichtbare Kanten(TC_020513_DIN)
100
AcDbVertex
100
AcDb2dVertex
 10
134.7845888317267
 20
166.9600880570586
 30
0.0
  0
VERTEX
  5
430
330
42B
100
AcDbEntity
  8
Sichtbare Kanten(TC_020513_DIN)
100
AcDbVertex
100
AcDb2dVertex
 10
134.7795343578498
 20
166.9492245145018
 30
0.0
  0
VERTEX
  5
431
330
42B
100
AcDbEntity
  8
Sichtbare Kanten(TC_020513_DIN)
100
AcDbVertex
100
AcDb2dVertex
 10
134.7736406505744
 20
166.9376492924864
 30
0.0
  0
VERTEX
  5
432
330
42B
100
AcDbEntity
  8
Sichtbare Kanten(TC_020513_DIN)
100
AcDbVertex
100
AcDb2dVertex
 10
134.7668409526984
 20
166.9254935212309
 30
0.0
  0
VERTEX
  5
433
330
42B
100
AcDbEntity
  8
Sichtbare Kanten(TC_020513_DIN)
100
AcDbVertex
100
AcDb2dVertex
 10
134.7590446651618
 20
166.9128966756041
 30
0.0
  0
VERTEX
  5
434
330
42B
100
AcDbEntity
  8
Sichtbare Kanten(TC_020513_DIN)
100
AcDbVertex
100
AcDb2dVertex
 10
134.7501754940192
 20
166.8999898858244
 30
0.0
  0
VERTEX
  5
435
330
42B
100
AcDbEntity
  8
Sichtbare Kanten(TC_020513_DIN)
100
AcDbVertex
100
AcDb2dVertex
 10
134.7401523769538
 20
166.8869114346678
 30
0.0
  0
VERTEX
  5
436
330
42B
100
AcDbEntity
  8
Sichtbare Kanten(TC_020513_DIN)
100
AcDbVertex
100
AcDb2dVertex
 10
134.728889483277
 20
166.8737960286314
 30
0.0
  0
VERTEX
  5
437
330
42B
100
AcDbEntity
  8
Sichtbare Kanten(TC_020513_DIN)
100
AcDbVertex
100
AcDb2dVertex
 10
134.7163152874152
 20
166.8607771821196
 30
0.0
  0
VERTEX
  5
438
330
42B
100
AcDbEntity
  8
Sichtbare Kanten(TC_020513_DIN)
100
AcDbVertex
100
AcDb2dVertex
 10
134.7023391903083
 20
166.8479919858153
 30
0.0
  0
VERTEX
  5
439
330
42B
100
AcDbEntity
  8
Sichtbare Kanten(TC_020513_DIN)
100
AcDbVertex
100
AcDb2dVertex
 10
134.6868801296393
 20
166.8355739541228
 30
0.0
  0
VERTEX
  5
43A
330
42B
100
AcDbEntity
  8
Sichtbare Kanten(TC_020513_DIN)
100
AcDbVertex
100
AcDb2dVertex
 10
134.6698665798346
 20
166.8236601777251
 30
0.0
  0
VERTEX
  5
43B
330
42B
100
AcDbEntity
  8
Sichtbare Kanten(TC_020513_DIN)
100
AcDbVertex
100
AcDb2dVertex
 10
134.6512079418342
 20
166.8123853631193
 30
0.0
  0
VERTEX
  5
43C
330
42B
100
AcDbEntity
  8
Sichtbare Kanten(TC_020513_DIN)
100
AcDbVertex
100
AcDb2dVertex
 10
134.631142634217
 20
166.8020189233
 30
0.0
  0
VERTEX
  5
43D
330
42B
100
AcDbEntity
  8
Sichtbare Kanten(TC_020513_DIN)
100
AcDbVertex
100
AcDb2dVertex
 10
134.6100092113654
 20
166.7927623219664
 30
0.0
  0
VERTEX
  5
43E
330
42B
100
AcDbEntity
  8
Sichtbare Kanten(TC_020513_DIN)
100
AcDbVertex
100
AcDb2dVertex
 10
134.5878124416511
 20
166.7846119828398
 30
0.0
  0
VERTEX
  5
43F
330
42B
100
AcDbEntity
  8
Sichtbare Kanten(TC_020513_DIN)
100
AcDbVertex
100
AcDb2dVertex
 10
134.5645713985602
 20
166.7775607533629
 30
0.0
  0
VERTEX
  5
440
330
42B
100
AcDbEntity
  8
Sichtbare Kanten(TC_020513_DIN)
100
AcDbVertex
100
AcDb2dVertex
 10
134.5402860820929
 20
166.7716074414427
 30
0.0
  0
VERTEX
  5
441
330
42B
100
AcDbEntity
  8
Sichtbare Kanten(TC_020513_DIN)
100
AcDbVertex
100
AcDb2dVertex
 10
134.5149755657355
 20
166.7667460866148
 30
0.0
  0
VERTEX
  5
442
330
42B
100
AcDbEntity
  8
Sichtbare Kanten(TC_020513_DIN)
100
AcDbVertex
100
AcDb2dVertex
 10
134.488639849488
 20
166.7629731126005
 30
0.0
  0
VERTEX
  5
443
330
42B
100
AcDbEntity
  8
Sichtbare Kanten(TC_020513_DIN)
100
AcDbVertex
100
AcDb2dVertex
 10
134.4612980068366
 20
166.7602837510283
 30
0.0
  0
VERTEX
  5
444
330
42B
100
AcDbEntity
  8
Sichtbare Kanten(TC_020513_DIN)
100
AcDbVertex
100
AcDb2dVertex
 10
134.4329500377814
 20
166.7586732335265
 30
0.0
  0
VERTEX
  5
445
330
42B
100
AcDbEntity
  8
Sichtbare Kanten(TC_020513_DIN)
100
AcDbVertex
100
AcDb2dVertex
 10
134.4036197841803
 20
166.7581367917235
 30
0.0
  0
SEQEND
  5
42E
330
42B
100
AcDbEntity
  8
Sichtbare Kanten(TC_020513_DIN)
  0
POLYLINE
  5
446
330
37
100
AcDbEntity
  8
Sichtbare Kanten(TC_020513_DIN)
100
AcDb2dPolyline
 66
     1
 10
0.0
 20
0.0
 30
0.0
 70
   128
  0
VERTEX
  5
447
330
446
100
AcDbEntity
  8
Sichtbare Kanten(TC_020513_DIN)
100
AcDbVertex
100
AcDb2dVertex
 10
133.2190895260016
 20
166.7581367917235
 30
0.0
  0
VERTEX
  5
448
330
446
100
AcDbEntity
  8
Sichtbare Kanten(TC_020513_DIN)
100
AcDbVertex
100
AcDb2dVertex
 10
133.2333564937751
 20
166.7586458153899
 30
0.0
  0
VERTEX
  5
44A
330
446
100
AcDbEntity
  8
Sichtbare Kanten(TC_020513_DIN)
100
AcDbVertex
100
AcDb2dVertex
 10
133.2470989406745
 20
166.7601669259245
 30
0.0
  0
VERTEX
  5
44B
330
446
100
AcDbEntity
  8
Sichtbare Kanten(TC_020513_DIN)
100
AcDbVertex
100
AcDb2dVertex
 10
133.260326403443
 20
166.7626893944914
 30
0.0
  0
VERTEX
  5
44C
330
446
100
AcDbEntity
  8
Sichtbare Kanten(TC_020513_DIN)
100
AcDbVertex
100
AcDb2dVertex
 10
133.2730341137091
 20
166.7662013001616
 30
0.0
  0
VERTEX
  5
44D
330
446
100
AcDbEntity
  8
Sichtbare Kanten(TC_020513_DIN)
100
AcDbVertex
100
AcDb2dVertex
 10
133.2852220714728
 20
166.7706942982848
 30
0.0
  0
VERTEX
  5
44E
330
446
100
AcDbEntity
  8
Sichtbare Kanten(TC_020513_DIN)
100
AcDbVertex
100
AcDb2dVertex
 10
133.2968902767341
 20
166.7761576600249
 30
0.0
  0
VERTEX
  5
44F
330
446
100
AcDbEntity
  8
Sichtbare Kanten(TC_020513_DIN)
100
AcDbVertex
100
AcDb2dVertex
 10
133.3080339611212
 20
166.7825782723601
 30
0.0
  0
VERTEX
  5
450
330
446
100
AcDbEntity
  8
Sichtbare Kanten(TC_020513_DIN)
100
AcDbVertex
100
AcDb2dVertex
 10
133.318657893006
 20
166.789948982733
 30
0.0
  0
VERTEX
  5
451
330
446
100
AcDbEntity
  8
Sichtbare Kanten(TC_020513_DIN)
100
AcDbVertex
100
AcDb2dVertex
 10
133.3287620723883
 20
166.7982566781218
 30
0.0
  0
VERTEX
  5
452
330
446
100
AcDbEntity
  8
Sichtbare Kanten(TC_020513_DIN)
100
AcDbVertex
100
AcDb2dVertex
 10
133.3383369625251
 20
166.8074799008543
 30
0.0
  0
VERTEX
  5
453
330
446
100
AcDbEntity
  8
Sichtbare Kanten(TC_020513_DIN)
100
AcDbVertex
100
AcDb2dVertex
 10
133.3473491848151
 20
166.8175638146574
 30
0.0
  0
VERTEX
  5
454
330
446
100
AcDbEntity
  8
Sichtbare Kanten(TC_020513_DIN)
100
AcDbVertex
100
AcDb2dVertex
 10
133.3558082760016
 20
166.8284810013945
 30
0.0
  0
VERTEX
  5
455
330
446
100
AcDbEntity
  8
Sichtbare Kanten(TC_020513_DIN)
100
AcDbVertex
100
AcDb2dVertex
 10
133.363733309571
 20
166.8402076192076
 30
0.0
  0
VERTEX
  5
456
330
446
100
AcDbEntity
  8
Sichtbare Kanten(TC_020513_DIN)
100
AcDbVertex
100
AcDb2dVertex
 10
133.3711338222663
 20
166.8527234025176
 30
0.0
  0
VERTEX
  5
457
330
446
100
AcDbEntity
  8
Sichtbare Kanten(TC_020513_DIN)
100
AcDbVertex
100
AcDb2dVertex
 10
133.3780336559455
 20
166.8660033173735
 30
0.0
  0
VERTEX
  5
458
330
446
100
AcDbEntity
  8
Sichtbare Kanten(TC_020513_DIN)
100
AcDbVertex
100
AcDb2dVertex
 10
133.3843994320075
 20
166.8799317307646
 30
0.0
  0
VERTEX
  5
459
330
446
100
AcDbEntity
  8
Sichtbare Kanten(TC_020513_DIN)
100
AcDbVertex
100
AcDb2dVertex
 10
133.3900737941901
 20
166.8939686246092
 30
0.0
  0
VERTEX
  5
45A
330
446
100
AcDbEntity
  8
Sichtbare Kanten(TC_020513_DIN)
100
AcDbVertex
100
AcDb2dVertex
 10
133.3950758159797
 20
166.9078815407927
 30
0.0
  0
VERTEX
  5
45B
330
446
100
AcDbEntity
  8
Sichtbare Kanten(TC_020513_DIN)
100
AcDbVertex
100
AcDb2dVertex
 10
133.399453181092
 20
166.9214988179381
 30
0.0
  0
VERTEX
  5
45C
330
446
100
AcDbEntity
  8
Sichtbare Kanten(TC_020513_DIN)
100
AcDbVertex
100
AcDb2dVertex
 10
133.4032535732428
 20
166.9346487946684
 30
0.0
  0
VERTEX
  5
45D
330
446
100
AcDbEntity
  8
Sichtbare Kanten(TC_020513_DIN)
100
AcDbVertex
100
AcDb2dVertex
 10
133.406515139405
 20
166.9471598096068
 30
0.0
  0
VERTEX
  5
45E
330
446
100
AcDbEntity
  8
Sichtbare Kanten(TC_020513_DIN)
100
AcDbVertex
100
AcDb2dVertex
 10
133.4092855632941
 20
166.9588590092833
 30
0.0
  0
VERTEX
  5
45F
330
446
100
AcDbEntity
  8
Sichtbare Kanten(TC_020513_DIN)
100
AcDbVertex
100
AcDb2dVertex
 10
133.4116172969977
 20
166.9695735402281
 30
0.0
  0
VERTEX
  5
460
330
446
100
AcDbEntity
  8
Sichtbare Kanten(TC_020513_DIN)
100
AcDbVertex
100
AcDb2dVertex
 10
133.4135484874884
 20
166.9791317410643
 30
0.0
  0
SEQEND
  5
449
330
446
100
AcDbEntity
  8
Sichtbare Kanten(TC_020513_DIN)
  0
LINE
  5
461
330
37
100
AcDbEntity
  8
Sichtbare Kanten(TC_020513_DIN)
100
AcDbLine
 10
132.0345575512091
 20
166.7581368476353
 30
0.0
 11
134.4036180795527
 21
166.7581368476353
 31
0.0
  0
LINE
  5
462
330
37
100
AcDbEntity
  8
Sichtbare Kanten(TC_020513_DIN)
100
AcDbLine
 10
134.8345575512091
 20
156.7581368476353
 30
0.0
 11
132.0345575512091
 21
156.7581368476353
 31
0.0
  0
LINE
  5
463
330
37
100
AcDbEntity
  8
Sichtbare Kanten(TC_020513_DIN)
100
AcDbLine
 10
134.8345575512091
 20
167.1933930968316
 30
0.0
 11
134.8345575512091
 21
156.7581368476353
 31
0.0
  0
ARC
  5
464
330
37
100
AcDbEntity
  8
Sichtbare Kanten(TC_020513_DIN)
100
AcDbCircle
 10
134.9345575512091
 20
139.2594965976328
 30
0.0
 40
0.1000000000000067
100
AcDbArc
 50
180.0
 51
270.0
  0
ARC
  5
465
330
37
100
AcDbEntity
  8
Sichtbare Kanten(TC_020513_DIN)
100
AcDbCircle
 10
134.9345575512091
 20
139.2594965976328
 30
0.0
 40
1.499999999999914
100
AcDbArc
 50
180.0
 51
206.9141492018611
  0
LINE
  5
466
330
37
100
AcDbEntity
  8
Sichtbare Kanten(TC_020513_DIN)
100
AcDbLine
 10
130.8345575512092
 20
134.6471515126402
 30
0.0
 11
131.8345575512091
 21
134.0698012434506
 31
0.0
  0
LINE
  5
467
330
37
100
AcDbEntity
  8
Sichtbare Kanten(TC_020513_DIN)
100
AcDbLine
 10
125.8345575512092
 20
134.0698012434506
 30
0.0
 11
131.8345575512092
 21
134.0698012434506
 31
0.0
  0
LINE
  5
468
330
37
100
AcDbEntity
  8
Sichtbare Kanten(TC_020513_DIN)
100
AcDbLine
 10
125.8345575512091
 20
134.6471515126402
 30
0.0
 11
130.8345575512092
 21
134.6471515126402
 31
0.0
  0
LINE
  5
469
330
37
100
AcDbEntity
  8
Sichtbare Kanten(TC_020513_DIN)
100
AcDbLine
 10
125.8345575512091
 20
134.0698012434506
 30
0.0
 11
44.33455755120917
 21
134.0698012434506
 31
0.0
  0
LINE
  5
46A
330
37
100
AcDbEntity
  8
Sichtbare Kanten(TC_020513_DIN)
100
AcDbLine
 10
125.8345575512091
 20
134.6471515126402
 30
0.0
 11
44.33455755120917
 21
134.6471515126402
 31
0.0
  0
LINE
  5
46B
330
37
100
AcDbEntity
  8
Sichtbare Kanten(TC_020513_DIN)
100
AcDbLine
 10
38.33455755120917
 20
134.0698012434506
 30
0.0
 11
44.33455755120916
 21
134.0698012434506
 31
0.0
  0
LINE
  5
46C
330
37
100
AcDbEntity
  8
Sichtbare Kanten(TC_020513_DIN)
100
AcDbLine
 10
39.33455755120917
 20
134.6471515126402
 30
0.0
 11
44.33455755120916
 21
134.6471515126402
 31
0.0
  0
LINE
  5
46D
330
37
100
AcDbEntity
  8
Sichtbare Kanten(TC_020513_DIN)
100
AcDbLine
 10
39.33455755120917
 20
134.6471515126402
 30
0.0
 11
38.33455755120917
 21
134.0698012434506
 31
0.0
  0
LINE
  5
46E
330
37
100
AcDbEntity
  8
Sichtbare Kanten(TC_020513_DIN)
100
AcDbLine
 10
38.33455755120917
 20
134.0698012434506
 30
0.0
 11
38.33455755120917
 21
135.7245017818298
 31
0.0
  0
LINE
  5
46F
330
37
100
AcDbEntity
  8
Sichtbare Kanten(TC_020513_DIN)
100
AcDbLine
 10
38.33455755120917
 20
135.7245017818298
 30
0.0
 11
39.33455755120917
 21
135.1471515126402
 31
0.0
  0
LINE
  5
470
330
37
100
AcDbEntity
  8
Sichtbare Kanten(TC_020513_DIN)
100
AcDbLine
 10
39.33455755120917
 20
135.1471515126402
 30
0.0
 11
39.33455755120917
 21
134.6471515126402
 31
0.0
  0
LINE
  5
471
330
37
100
AcDbEntity
  8
Sichtbare Kanten(TC_020513_DIN)
100
AcDbLine
 10
39.33455755120917
 20
135.1471515126402
 30
0.0
 11
44.33455755120916
 21
135.1471515126402
 31
0.0
  0
LINE
  5
472
330
37
100
AcDbEntity
  8
Sichtbare Kanten(TC_020513_DIN)
100
AcDbLine
 10
44.33455755120917
 20
135.7245017818298
 30
0.0
 11
38.33455755120917
 21
135.7245017818298
 31
0.0
  0
LINE
  5
473
330
37
100
AcDbEntity
  8
Sichtbare Kanten(TC_020513_DIN)
100
AcDbLine
 10
44.33455755120916
 20
135.7245017818298
 30
0.0
 11
125.8345575512091
 21
135.7245017818298
 31
0.0
  0
LINE
  5
474
330
37
100
AcDbEntity
  8
Sichtbare Kanten(TC_020513_DIN)
100
AcDbLine
 10
125.8345575512091
 20
135.1471515126402
 30
0.0
 11
44.33455755120917
 21
135.1471515126402
 31
0.0
  0
LINE
  5
475
330
37
100
AcDbEntity
  8
Sichtbare Kanten(TC_020513_DIN)
100
AcDbLine
 10
131.8345575512091
 20
135.7245017818298
 30
0.0
 11
125.8345575512091
 21
135.7245017818298
 31
0.0
  0
LINE
  5
476
330
37
100
AcDbEntity
  8
Sichtbare Kanten(TC_020513_DIN)
100
AcDbLine
 10
125.8345575512091
 20
135.1471515126402
 30
0.0
 11
130.8345575512092
 21
135.1471515126402
 31
0.0
  0
LINE
  5
477
330
37
100
AcDbEntity
  8
Sichtbare Kanten(TC_020513_DIN)
100
AcDbLine
 10
131.8345575512091
 20
135.7245017818298
 30
0.0
 11
130.8345575512092
 21
135.1471515126402
 31
0.0
  0
LINE
  5
478
330
37
100
AcDbEntity
  8
Sichtbare Kanten(TC_020513_DIN)
100
AcDbLine
 10
130.8345575512092
 20
135.1471515126402
 30
0.0
 11
130.8345575512092
 21
134.6471515126402
 31
0.0
  0
LINE
  5
479
330
37
100
AcDbEntity
  8
Sichtbare Kanten(TC_020513_DIN)
100
AcDbLine
 10
131.8345575512092
 20
135.7245017818298
 30
0.0
 11
131.8345575512092
 21
134.0698012434506
 31
0.0
  0
LINE
  5
47A
330
37
100
AcDbEntity
  8
Sichtbare Kanten(TC_020513_DIN)
100
AcDbLine
 10
130.8345575512092
 20
136.6471515126402
 30
0.0
 11
131.8345575512091
 21
136.0698012434506
 31
0.0
  0
LINE
  5
47B
330
37
100
AcDbEntity
  8
Sichtbare Kanten(TC_020513_DIN)
100
AcDbLine
 10
125.8345575512092
 20
136.0698012434506
 30
0.0
 11
131.8345575512092
 21
136.0698012434506
 31
0.0
  0
LINE
  5
47C
330
37
100
AcDbEntity
  8
Sichtbare Kanten(TC_020513_DIN)
100
AcDbLine
 10
125.8345575512091
 20
136.6471515126402
 30
0.0
 11
130.8345575512092
 21
136.6471515126402
 31
0.0
  0
LINE
  5
47D
330
37
100
AcDbEntity
  8
Sichtbare Kanten(TC_020513_DIN)
100
AcDbLine
 10
125.8345575512091
 20
136.0698012434506
 30
0.0
 11
44.33455755120917
 21
136.0698012434506
 31
0.0
  0
LINE
  5
47E
330
37
100
AcDbEntity
  8
Sichtbare Kanten(TC_020513_DIN)
100
AcDbLine
 10
125.8345575512091
 20
136.6471515126402
 30
0.0
 11
124.1179202486184
 21
136.6471515126402
 31
0.0
  0
LINE
  5
47F
330
37
100
AcDbEntity
  8
Sichtbare Kanten(TC_020513_DIN)
100
AcDbLine
 10
94.87716570672635
 20
136.6471515126402
 30
0.0
 11
75.29194939569196
 21
136.6471515126402
 31
0.0
  0
LINE
  5
480
330
37
100
AcDbEntity
  8
Sichtbare Kanten(TC_020513_DIN)
100
AcDbLine
 10
46.05119485379989
 20
136.6471515126402
 30
0.0
 11
44.33455755120916
 21
136.6471515126402
 31
0.0
  0
LINE
  5
481
330
37
100
AcDbEntity
  8
Sichtbare Kanten(TC_020513_DIN)
100
AcDbLine
 10
38.33455755120917
 20
136.0698012434506
 30
0.0
 11
44.33455755120916
 21
136.0698012434506
 31
0.0
  0
LINE
  5
482
330
37
100
AcDbEntity
  8
Sichtbare Kanten(TC_020513_DIN)
100
AcDbLine
 10
39.33455755120917
 20
136.6471515126402
 30
0.0
 11
44.33455755120916
 21
136.6471515126402
 31
0.0
  0
LINE
  5
483
330
37
100
AcDbEntity
  8
Sichtbare Kanten(TC_020513_DIN)
100
AcDbLine
 10
39.33455755120917
 20
136.6471515126402
 30
0.0
 11
38.33455755120917
 21
136.0698012434506
 31
0.0
  0
LINE
  5
484
330
37
100
AcDbEntity
  8
Sichtbare Kanten(TC_020513_DIN)
100
AcDbLine
 10
38.33455755120917
 20
136.0698012434506
 30
0.0
 11
38.33455755120917
 21
137.1805142100495
 31
0.0
  0
LINE
  5
485
330
37
100
AcDbEntity
  8
Sichtbare Kanten(TC_020513_DIN)
100
AcDbLine
 10
39.27677166421874
 20
137.1805142100495
 30
0.0
 11
39.33455755120917
 21
137.1471515126402
 31
0.0
  0
LINE
  5
486
330
37
100
AcDbEntity
  8
Sichtbare Kanten(TC_020513_DIN)
100
AcDbLine
 10
39.33455755120917
 20
137.1471515126402
 30
0.0
 11
39.33455755120917
 21
136.6471515126402
 31
0.0
  0
LINE
  5
487
330
37
100
AcDbEntity
  8
Sichtbare Kanten(TC_020513_DIN)
100
AcDbLine
 10
39.33455755120917
 20
137.1471515126402
 30
0.0
 11
44.33455755120916
 21
137.1471515126402
 31
0.0
  0
LINE
  5
488
330
37
100
AcDbEntity
  8
Sichtbare Kanten(TC_020513_DIN)
100
AcDbLine
 10
125.8345575512091
 20
137.1471515126402
 30
0.0
 11
124.1179202486184
 21
137.1471515126402
 31
0.0
  0
LINE
  5
489
330
37
100
AcDbEntity
  8
Sichtbare Kanten(TC_020513_DIN)
100
AcDbLine
 10
94.86792024861845
 20
137.1471515126402
 30
0.0
 11
75.3011948537999
 21
137.1471515126402
 31
0.0
  0
LINE
  5
48A
330
37
100
AcDbEntity
  8
Sichtbare Kanten(TC_020513_DIN)
100
AcDbLine
 10
46.05119485379989
 20
137.1471515126402
 30
0.0
 11
44.33455755120916
 21
137.1471515126402
 31
0.0
  0
LINE
  5
48B
330
37
100
AcDbEntity
  8
Sichtbare Kanten(TC_020513_DIN)
100
AcDbLine
 10
125.8345575512091
 20
137.1471515126402
 30
0.0
 11
130.8345575512092
 21
137.1471515126402
 31
0.0
  0
LINE
  5
48C
330
37
100
AcDbEntity
  8
Sichtbare Kanten(TC_020513_DIN)
100
AcDbLine
 10
130.8923434381995
 20
137.1805142100495
 30
0.0
 11
130.8345575512092
 21
137.1471515126402
 31
0.0
  0
LINE
  5
48D
330
37
100
AcDbEntity
  8
Sichtbare Kanten(TC_020513_DIN)
100
AcDbLine
 10
130.8345575512092
 20
137.1471515126402
 30
0.0
 11
130.8345575512092
 21
136.6471515126402
 31
0.0
  0
LINE
  5
48E
330
37
100
AcDbEntity
  8
Sichtbare Kanten(TC_020513_DIN)
100
AcDbLine
 10
131.8345575512092
 20
137.1805142100495
 30
0.0
 11
131.8345575512092
 21
136.0698012434506
 31
0.0
  0
LINE
  5
48F
330
37
100
AcDbEntity
  8
Sichtbare Kanten(TC_020513_DIN)
100
AcDbLine
 10
38.33455755120917
 20
138.5805142100495
 30
0.0
 11
38.33455755120917
 21
139.7245017818298
 31
0.0
  0
LINE
  5
490
330
37
100
AcDbEntity
  8
Sichtbare Kanten(TC_020513_DIN)
100
AcDbLine
 10
130.8345575512092
 20
138.6471515126402
 30
0.0
 11
130.9499767449757
 21
138.5805142100494
 31
0.0
  0
LINE
  5
491
330
37
100
AcDbEntity
  8
Sichtbare Kanten(TC_020513_DIN)
100
AcDbLine
 10
125.8345575512091
 20
138.6471515126402
 30
0.0
 11
130.8345575512092
 21
138.6471515126402
 31
0.0
  0
LINE
  5
492
330
37
100
AcDbEntity
  8
Sichtbare Kanten(TC_020513_DIN)
100
AcDbLine
 10
125.8345575512091
 20
138.6471515126402
 30
0.0
 11
44.33455755120917
 21
138.6471515126402
 31
0.0
  0
LINE
  5
493
330
37
100
AcDbEntity
  8
Sichtbare Kanten(TC_020513_DIN)
100
AcDbLine
 10
39.33455755120917
 20
138.6471515126402
 30
0.0
 11
44.33455755120916
 21
138.6471515126402
 31
0.0
  0
LINE
  5
494
330
37
100
AcDbEntity
  8
Sichtbare Kanten(TC_020513_DIN)
100
AcDbLine
 10
39.33455755120917
 20
138.6471515126402
 30
0.0
 11
39.21913835744265
 21
138.5805142100494
 31
0.0
  0
LINE
  5
495
330
37
100
AcDbEntity
  8
Sichtbare Kanten(TC_020513_DIN)
100
AcDbLine
 10
38.33455755120917
 20
139.7245017818298
 30
0.0
 11
39.33455755120917
 21
139.1471515126402
 31
0.0
  0
LINE
  5
496
330
37
100
AcDbEntity
  8
Sichtbare Kanten(TC_020513_DIN)
100
AcDbLine
 10
39.33455755120917
 20
139.1471515126402
 30
0.0
 11
39.33455755120917
 21
138.6471515126402
 31
0.0
  0
LINE
  5
497
330
37
100
AcDbEntity
  8
Sichtbare Kanten(TC_020513_DIN)
100
AcDbLine
 10
39.33455755120917
 20
139.1471515126402
 30
0.0
 11
44.33455755120916
 21
139.1471515126402
 31
0.0
  0
LINE
  5
498
330
37
100
AcDbEntity
  8
Sichtbare Kanten(TC_020513_DIN)
100
AcDbLine
 10
44.33455755120917
 20
139.7245017818298
 30
0.0
 11
38.33455755120917
 21
139.7245017818298
 31
0.0
  0
LINE
  5
499
330
37
100
AcDbEntity
  8
Sichtbare Kanten(TC_020513_DIN)
100
AcDbLine
 10
44.33455755120916
 20
139.7245017818298
 30
0.0
 11
125.8345575512091
 21
139.7245017818298
 31
0.0
  0
LINE
  5
49A
330
37
100
AcDbEntity
  8
Sichtbare Kanten(TC_020513_DIN)
100
AcDbLine
 10
125.8345575512091
 20
139.1471515126402
 30
0.0
 11
44.33455755120917
 21
139.1471515126402
 31
0.0
  0
LINE
  5
49B
330
37
100
AcDbEntity
  8
Sichtbare Kanten(TC_020513_DIN)
100
AcDbLine
 10
131.8345575512091
 20
139.7245017818298
 30
0.0
 11
125.8345575512091
 21
139.7245017818298
 31
0.0
  0
LINE
  5
49C
330
37
100
AcDbEntity
  8
Sichtbare Kanten(TC_020513_DIN)
100
AcDbLine
 10
125.8345575512091
 20
139.1471515126402
 30
0.0
 11
130.8345575512092
 21
139.1471515126402
 31
0.0
  0
LINE
  5
49D
330
37
100
AcDbEntity
  8
Sichtbare Kanten(TC_020513_DIN)
100
AcDbLine
 10
131.8345575512092
 20
139.7245017818298
 30
0.0
 11
130.8345575512092
 21
139.1471515126402
 31
0.0
  0
LINE
  5
49E
330
37
100
AcDbEntity
  8
Sichtbare Kanten(TC_020513_DIN)
100
AcDbLine
 10
130.8345575512092
 20
139.1471515126402
 30
0.0
 11
130.8345575512092
 21
138.6471515126402
 31
0.0
  0
LINE
  5
49F
330
37
100
AcDbEntity
  8
Sichtbare Kanten(TC_020513_DIN)
100
AcDbLine
 10
131.8345575512092
 20
139.7245017818298
 30
0.0
 11
131.8345575512092
 21
138.5805142100494
 31
0.0
  0
LINE
  5
4A0
330
37
100
AcDbEntity
  8
Sichtbare Kanten(TC_020513_DIN)
100
AcDbLine
 10
131.8345575512091
 20
136.0698012434506
 30
0.0
 11
131.8345575512091
 21
135.7245017818298
 31
0.0
  0
LINE
  5
4A1
330
37
100
AcDbEntity
  8
Sichtbare Kanten(TC_020513_DIN)
100
AcDbLine
 10
131.8345575512091
 20
134.0698012434506
 30
0.0
 11
131.8345575512092
 21
79.39715151264024
 31
0.0
  0
LINE
  5
4A2
330
37
100
AcDbEntity
  8
Sichtbare Kanten(TC_020513_DIN)
100
AcDbLine
 10
38.33455755120917
 20
136.0698012434506
 30
0.0
 11
38.33455755120917
 21
135.7245017818298
 31
0.0
  0
LINE
  5
4A3
330
37
100
AcDbEntity
  8
Sichtbare Kanten(TC_020513_DIN)
100
AcDbLine
 10
38.33455755120917
 20
153.3971515126402
 30
0.0
 11
38.33455755120917
 21
139.7245017818298
 31
0.0
  0
LINE
  5
4A4
330
37
100
AcDbEntity
  8
Sichtbare Kanten(TC_020513_DIN)
100
AcDbLine
 10
38.33455755120917
 20
134.0698012434506
 30
0.0
 11
38.33455755120917
 21
79.39715151264024
 31
0.0
  0
LINE
  5
4A5
330
37
100
AcDbEntity
  8
Sichtbare Kanten(TC_020513_DIN)
100
AcDbLine
 10
131.8345575512092
 20
153.3971515126402
 30
0.0
 11
131.8345575512092
 21
139.7245017818298
 31
0.0
  0
LINE
  5
4A6
330
37
100
AcDbEntity
  8
Sichtbare Kanten(TC_020513_DIN)
100
AcDbLine
 10
137.4345575512091
 20
153.3971515126403
 30
0.0
 11
137.4345575512091
 21
145.3971515126402
 31
0.0
  0
LINE
  5
4A7
330
37
100
AcDbEntity
  8
Sichtbare Kanten(TC_020513_DIN)
100
AcDbLine
 10
138.8345575512091
 20
153.3971515126403
 30
0.0
 11
138.8345575512091
 21
145.3971515126402
 31
0.0
  0
LINE
  5
4A8
330
37
100
AcDbEntity
  8
Sichtbare Kanten(TC_020513_DIN)
100
AcDbLine
 10
137.4345575512091
 20
146.8971515126403
 30
0.0
 11
136.8345575512091
 21
146.8971515126403
 31
0.0
  0
LINE
  5
4A9
330
37
100
AcDbEntity
  8
Sichtbare Kanten(TC_020513_DIN)
100
AcDbLine
 10
137.4345575512091
 20
151.8971515126402
 30
0.0
 11
136.8345575512091
 21
151.8971515126402
 31
0.0
  0
LINE
  5
4AA
330
37
100
AcDbEntity
  8
Sichtbare Kanten(TC_020513_DIN)
100
AcDbLine
 10
135.4345575512092
 20
146.8971515126403
 30
0.0
 11
134.8345575512091
 21
146.8971515126403
 31
0.0
  0
LINE
  5
4AB
330
37
100
AcDbEntity
  8
Sichtbare Kanten(TC_020513_DIN)
100
AcDbLine
 10
133.4345575512091
 20
146.8971515126403
 30
0.0
 11
131.8345575512092
 21
146.8971515126402
 31
0.0
  0
LINE
  5
4AC
330
37
100
AcDbEntity
  8
Sichtbare Kanten(TC_020513_DIN)
100
AcDbLine
 10
135.4345575512092
 20
151.8971515126402
 30
0.0
 11
134.8345575512091
 21
151.8971515126402
 31
0.0
  0
LINE
  5
4AD
330
37
100
AcDbEntity
  8
Sichtbare Kanten(TC_020513_DIN)
100
AcDbLine
 10
133.4345575512091
 20
151.8971515126402
 30
0.0
 11
131.8345575512091
 21
151.8971515126402
 31
0.0
  0
ARC
  5
4AE
330
37
100
AcDbEntity
  8
Sichtbare Kanten(TC_020513_DIN)
100
AcDbCircle
 10
138.1345575512091
 20
145.3971515126402
 30
0.0
 40
0.699999999999998
100
AcDbArc
 50
180.0
 51
0.0
  0
ARC
  5
4AF
330
37
100
AcDbEntity
  8
Sichtbare Kanten(TC_020513_DIN)
100
AcDbCircle
 10
138.1345575512091
 20
153.3971515126403
 30
0.0
 40
0.699999999999998
100
AcDbArc
 50
0.0
 51
180.0
  0
LINE
  5
4B0
330
37
100
AcDbEntity
  8
Sichtbare Kanten(TC_020513_DIN)
100
AcDbLine
 10
32.73455755120917
 20
153.3971515126403
 30
0.0
 11
32.73455755120917
 21
145.3971515126402
 31
0.0
  0
LINE
  5
4B1
330
37
100
AcDbEntity
  8
Sichtbare Kanten(TC_020513_DIN)
100
AcDbLine
 10
31.33455755120917
 20
153.3971515126403
 30
0.0
 11
31.33455755120917
 21
145.3971515126402
 31
0.0
  0
LINE
  5
4B2
330
37
100
AcDbEntity
  8
Sichtbare Kanten(TC_020513_DIN)
100
AcDbLine
 10
33.33455755120918
 20
146.8971515126403
 30
0.0
 11
32.73455755120919
 21
146.8971515126403
 31
0.0
  0
LINE
  5
4B3
330
37
100
AcDbEntity
  8
Sichtbare Kanten(TC_020513_DIN)
100
AcDbLine
 10
33.33455755120918
 20
151.8971515126402
 30
0.0
 11
32.73455755120919
 21
151.8971515126402
 31
0.0
  0
LINE
  5
4B4
330
37
100
AcDbEntity
  8
Sichtbare Kanten(TC_020513_DIN)
100
AcDbLine
 10
38.33455755120916
 20
146.8971515126402
 30
0.0
 11
36.73455755120917
 21
146.8971515126403
 31
0.0
  0
LINE
  5
4B5
330
37
100
AcDbEntity
  8
Sichtbare Kanten(TC_020513_DIN)
100
AcDbLine
 10
35.33455755120917
 20
146.8971515126403
 30
0.0
 11
34.73455755120915
 21
146.8971515126403
 31
0.0
  0
LINE
  5
4B6
330
37
100
AcDbEntity
  8
Sichtbare Kanten(TC_020513_DIN)
100
AcDbLine
 10
38.33455755120919
 20
151.8971515126402
 30
0.0
 11
36.73455755120917
 21
151.8971515126402
 31
0.0
  0
LINE
  5
4B7
330
37
100
AcDbEntity
  8
Sichtbare Kanten(TC_020513_DIN)
100
AcDbLine
 10
35.33455755120917
 20
151.8971515126402
 30
0.0
 11
34.73455755120915
 21
151.8971515126402
 31
0.0
  0
ARC
  5
4B8
330
37
100
AcDbEntity
  8
Sichtbare Kanten(TC_020513_DIN)
100
AcDbCircle
 10
32.03455755120917
 20
153.3971515126403
 30
0.0
 40
0.699999999999998
100
AcDbArc
 50
0.0
 51
180.0
  0
ARC
  5
4B9
330
37
100
AcDbEntity
  8
Sichtbare Kanten(TC_020513_DIN)
100
AcDbCircle
 10
32.03455755120917
 20
145.3971515126402
 30
0.0
 40
0.699999999999998
100
AcDbArc
 50
180.0
 51
0.0
  0
ARC
  5
4BA
330
37
100
AcDbEntity
  8
Sichtbare Kanten(TC_020513_DIN)
100
AcDbCircle
 10
129.8345575512091
 20
79.39715151264024
 30
0.0
 40
2.000000000000019
100
AcDbArc
 50
270.000000000001
 51
0.0
  0
LINE
  5
4BB
330
37
100
AcDbEntity
  8
Sichtbare Kanten(TC_020513_DIN)
100
AcDbLine
 10
129.8345575512092
 20
77.39715151264023
 30
0.0
 11
125.8345575512091
 21
77.39715151264023
 31
0.0
  0
LINE
  5
4BC
330
37
100
AcDbEntity
  8
Sichtbare Kanten(TC_020513_DIN)
100
AcDbLine
 10
44.33455755120917
 20
77.39715151264023
 30
0.0
 11
125.8345575512091
 21
77.39715151264023
 31
0.0
  0
LINE
  5
4BD
330
37
100
AcDbEntity
  8
Sichtbare Kanten(TC_020513_DIN)
100
AcDbLine
 10
44.33455755120917
 20
77.39715151264023
 30
0.0
 11
40.33455755120917
 21
77.39715151264023
 31
0.0
  0
ARC
  5
4BE
330
37
100
AcDbEntity
  8
Sichtbare Kanten(TC_020513_DIN)
100
AcDbCircle
 10
40.33455755120918
 20
79.39715151264024
 30
0.0
 40
2.00000000000001
100
AcDbArc
 50
180.0
 51
269.9999999999995
  0
LINE
  5
4BF
330
37
100
AcDbEntity
  8
Sichtbare Kanten(TC_020513_DIN)
100
AcDbLine
 10
44.08455755120917
 20
153.3971515126402
 30
0.0
 11
48.62933184187347
 21
153.3971515126402
 31
0.0
  0
LINE
  5
4C0
330
37
100
AcDbEntity
  8
Sichtbare Kanten(TC_020513_DIN)
100
AcDbLine
 10
121.5397832605448
 20
153.3971515126402
 30
0.0
 11
126.0845575512091
 21
153.3971515126402
 31
0.0
  0
LINE
  5
4C1
330
37
100
AcDbEntity
  8
Sichtbare Kanten(TC_020513_DIN)
100
AcDbLine
 10
44.08455755120917
 20
153.3971515126402
 30
0.0
 11
38.08455755120917
 21
153.3971515126402
 31
0.0
  0
LINE
  5
4C2
330
37
100
AcDbEntity
  8
Sichtbare Kanten(TC_020513_DIN)
100
AcDbLine
 10
132.0845575512092
 20
153.3971515126402
 30
0.0
 11
126.0845575512091
 21
153.3971515126402
 31
0.0
  0
LINE
  5
4C3
330
37
100
AcDbEntity
  8
Sichtbare Kanten(TC_020513_DIN)
100
AcDbLine
 10
132.0845575512092
 20
156.7581368476353
 30
0.0
 11
132.0845575512092
 21
153.3971515126402
 31
0.0
  0
LINE
  5
4C4
330
37
100
AcDbEntity
  8
Sichtbare Kanten(TC_020513_DIN)
100
AcDbLine
 10
38.08455755120917
 20
156.7581368476353
 30
0.0
 11
38.08455755120917
 21
153.3971515126402
 31
0.0
  0
LINE
  5
4C5
330
37
100
AcDbEntity
  8
Sichtbare Kanten(TC_020513_DIN)
100
AcDbLine
 10
94.86792024861845
 20
137.1603800758351
 30
0.0
 11
94.86792024861845
 21
137.0805142100494
 31
0.0
  0
LINE
  5
4C6
330
37
100
AcDbEntity
  8
Sichtbare Kanten(TC_020513_DIN)
100
AcDbLine
 10
124.1179202486184
 20
137.0805142100494
 30
0.0
 11
124.1179202486184
 21
137.1805142100494
 31
0.0
  0
POLYLINE
  5
4C7
330
37
100
AcDbEntity
  8
Sichtbare Kanten(TC_020513_DIN)
100
AcDb2dPolyline
 66
     1
 10
0.0
 20
0.0
 30
0.0
 70
   128
  0
VERTEX
  5
4C8
330
4C7
100
AcDbEntity
  8
Sichtbare Kanten(TC_020513_DIN)
100
AcDbVertex
100
AcDb2dVertex
 10
94.7948879182975
 20
137.1805143780882
 30
0.0
  0
VERTEX
  5
4C9
330
4C7
100
AcDbEntity
  8
Sichtbare Kanten(TC_020513_DIN)
100
AcDbVertex
100
AcDb2dVertex
 10
94.79749621755287
 20
137.1805096097166
 30
0.0
  0
VERTEX
  5
4CB
330
4C7
100
AcDbEntity
  8
Sichtbare Kanten(TC_020513_DIN)
100
AcDbVertex
100
AcDb2dVertex
 10
94.8003798902671
 20
137.1804917283232
 30
0.0
  0
VERTEX
  5
4CC
330
4C7
100
AcDbEntity
  8
Sichtbare Kanten(TC_020513_DIN)
100
AcDbVertex
100
AcDb2dVertex
 10
94.80350794202491
 20
137.1804523892576
 30
0.0
  0
VERTEX
  5
4CD
330
4C7
100
AcDbEntity
  8
Sichtbare Kanten(TC_020513_DIN)
100
AcDbVertex
100
AcDb2dVertex
 10
94.80684639817878
 20
137.1803868241484
 30
0.0
  0
VERTEX
  5
4CE
330
4C7
100
AcDbEntity
  8
Sichtbare Kanten(TC_020513_DIN)
100
AcDbVertex
100
AcDb2dVertex
 10
94.81036366826698
 20
137.1802854962522
 30
0.0
  0
VERTEX
  5
4CF
330
4C7
100
AcDbEntity
  8
Sichtbare Kanten(TC_020513_DIN)
100
AcDbVertex
100
AcDb2dVertex
 10
94.81402756578132
 20
137.1801424451048
 30
0.0
  0
VERTEX
  5
4D0
330
4C7
100
AcDbEntity
  8
Sichtbare Kanten(TC_020513_DIN)
100
AcDbVertex
100
AcDb2dVertex
 10
94.81780411607429
 20
137.1799517102415
 30
0.0
  0
VERTEX
  5
4D1
330
4C7
100
AcDbEntity
  8
Sichtbare Kanten(TC_020513_DIN)
100
AcDbVertex
100
AcDb2dVertex
 10
94.8216623247306
 20
137.1797049470121
 30
0.0
  0
VERTEX
  5
4D2
330
4C7
100
AcDbEntity
  8
Sichtbare Kanten(TC_020513_DIN)
100
AcDbVertex
100
AcDb2dVertex
 10
94.82556940919563
 20
137.1793950028593
 30
0.0
  0
VERTEX
  5
4D3
330
4C7
100
AcDbEntity
  8
Sichtbare Kanten(TC_020513_DIN)
100
AcDbVertex
100
AcDb2dVertex
 10
94.8294919908683
 20
137.1790159173185
 30
0.0
  0
VERTEX
  5
4D4
330
4C7
100
AcDbEntity
  8
Sichtbare Kanten(TC_020513_DIN)
100
AcDbVertex
100
AcDb2dVertex
 10
94.83339847928688
 20
137.1785605378325
 30
0.0
  0
VERTEX
  5
4D5
330
4C7
100
AcDbEntity
  8
Sichtbare Kanten(TC_020513_DIN)
100
AcDbVertex
100
AcDb2dVertex
 10
94.83725609189674
 20
137.1780217118437
 30
0.0
  0
VERTEX
  5
4D6
330
4C7
100
AcDbEntity
  8
Sichtbare Kanten(TC_020513_DIN)
100
AcDbVertex
100
AcDb2dVertex
 10
94.84103264218971
 20
137.177391094702
 30
0.0
  0
VERTEX
  5
4D7
330
4C7
100
AcDbEntity
  8
Sichtbare Kanten(TC_020513_DIN)
100
AcDbVertex
100
AcDb2dVertex
 10
94.84469475156471
 20
137.1766639180357
 30
0.0
  0
VERTEX
  5
4D8
330
4C7
100
AcDbEntity
  8
Sichtbare Kanten(TC_020513_DIN)
100
AcDbVertex
100
AcDb2dVertex
 10
94.84821082956001
 20
137.1758318371946
 30
0.0
  0
VERTEX
  5
4D9
330
4C7
100
AcDbEntity
  8
Sichtbare Kanten(TC_020513_DIN)
100
AcDbVertex
100
AcDb2dVertex
 10
94.85156299478218
 20
137.1748829312498
 30
0.0
  0
VERTEX
  5
4DA
330
4C7
100
AcDbEntity
  8
Sichtbare Kanten(TC_020513_DIN)
100
AcDbVertex
100
AcDb2dVertex
 10
94.85478641397163
 20
137.1737790532286
 30
0.0
  0
VERTEX
  5
4DB
330
4C7
100
AcDbEntity
  8
Sichtbare Kanten(TC_020513_DIN)
100
AcDbVertex
100
AcDb2dVertex
 10
94.85782088643714
 20
137.1725023217375
 30
0.0
  0
VERTEX
  5
4DC
330
4C7
100
AcDbEntity
  8
Sichtbare Kanten(TC_020513_DIN)
100
AcDbVertex
100
AcDb2dVertex
 10
94.8605936945121
 20
137.1710348553831
 30
0.0
  0
VERTEX
  5
4DD
330
4C7
100
AcDbEntity
  8
Sichtbare Kanten(TC_020513_DIN)
100
AcDbVertex
100
AcDb2dVertex
 10
94.86303152448341
 20
137.1693647332365
 30
0.0
  0
VERTEX
  5
4DE
330
4C7
100
AcDbEntity
  8
Sichtbare Kanten(TC_020513_DIN)
100
AcDbVertex
100
AcDb2dVertex
 10
94.86506285077735
 20
137.1674704976255
 30
0.0
  0
VERTEX
  5
4DF
330
4C7
100
AcDbEntity
  8
Sichtbare Kanten(TC_020513_DIN)
100
AcDbVertex
100
AcDb2dVertex
 10
94.86661316758796
 20
137.1653306908781
 30
0.0
  0
VERTEX
  5
4E0
330
4C7
100
AcDbEntity
  8
Sichtbare Kanten(TC_020513_DIN)
100
AcDbVertex
100
AcDb2dVertex
 10
94.86758829957649
 20
137.1629548497374
 30
0.0
  0
VERTEX
  5
4E1
330
4C7
100
AcDbEntity
  8
Sichtbare Kanten(TC_020513_DIN)
100
AcDbVertex
100
AcDb2dVertex
 10
94.86792029744789
 20
137.1603799290831
 30
0.0
  0
SEQEND
  5
4CA
330
4C7
100
AcDbEntity
  8
Sichtbare Kanten(TC_020513_DIN)
  0
POLYLINE
  5
4E2
330
37
100
AcDbEntity
  8
Sichtbare Kanten(TC_020513_DIN)
100
AcDb2dPolyline
 66
     1
 10
0.0
 20
0.0
 30
0.0
 70
   128
  0
VERTEX
  5
4E3
330
4E2
100
AcDbEntity
  8
Sichtbare Kanten(TC_020513_DIN)
100
AcDbVertex
100
AcDb2dVertex
 10
75.30119480497046
 20
137.1603799290831
 30
0.0
  0
VERTEX
  5
4E4
330
4E2
100
AcDbEntity
  8
Sichtbare Kanten(TC_020513_DIN)
100
AcDbVertex
100
AcDb2dVertex
 10
75.30133547193213
 20
137.1620905823881
 30
0.0
  0
VERTEX
  5
4E6
330
4E2
100
AcDbEntity
  8
Sichtbare Kanten(TC_020513_DIN)
100
AcDbVertex
100
AcDb2dVertex
 10
75.30189992791815
 20
137.1640837617094
 30
0.0
  0
VERTEX
  5
4E7
330
4E2
100
AcDbEntity
  8
Sichtbare Kanten(TC_020513_DIN)
100
AcDbVertex
100
AcDb2dVertex
 10
75.30309678918524
 20
137.1662712521727
 30
0.0
  0
VERTEX
  5
4E8
330
4E2
100
AcDbEntity
  8
Sichtbare Kanten(TC_020513_DIN)
100
AcDbVertex
100
AcDb2dVertex
 10
75.30496301061316
 20
137.168400330084
 30
0.0
  0
VERTEX
  5
4E9
330
4E2
100
AcDbEntity
  8
Sichtbare Kanten(TC_020513_DIN)
100
AcDbVertex
100
AcDb2dVertex
 10
75.30731262571021
 20
137.1702647633726
 30
0.0
  0
VERTEX
  5
4EA
330
4E2
100
AcDbEntity
  8
Sichtbare Kanten(TC_020513_DIN)
100
AcDbVertex
100
AcDb2dVertex
 10
75.31004430658026
 20
137.1718836255247
 30
0.0
  0
VERTEX
  5
4EB
330
4E2
100
AcDbEntity
  8
Sichtbare Kanten(TC_020513_DIN)
100
AcDbVertex
100
AcDb2dVertex
 10
75.31308891183539
 20
137.1732902951414
 30
0.0
  0
VERTEX
  5
4EC
330
4E2
100
AcDbEntity
  8
Sichtbare Kanten(TC_020513_DIN)
100
AcDbVertex
100
AcDb2dVertex
 10
75.31641187078162
 20
137.1745181508238
 30
0.0
  0
VERTEX
  5
4ED
330
4E2
100
AcDbEntity
  8
Sichtbare Kanten(TC_020513_DIN)
100
AcDbVertex
100
AcDb2dVertex
 10
75.31995059854193
 20
137.1755791135008
 30
0.0
  0
VERTEX
  5
4EE
330
4E2
100
AcDbEntity
  8
Sichtbare Kanten(TC_020513_DIN)
100
AcDbVertex
100
AcDb2dVertex
 10
75.32364251023932
 20
137.176489872473
 30
0.0
  0
VERTEX
  5
4EF
330
4E2
100
AcDbEntity
  8
Sichtbare Kanten(TC_020513_DIN)
100
AcDbVertex
100
AcDb2dVertex
 10
75.32742621308966
 20
137.1772635407621
 30
0.0
  0
VERTEX
  5
4F0
330
4E2
100
AcDbEntity
  8
Sichtbare Kanten(TC_020513_DIN)
100
AcDbVertex
100
AcDb2dVertex
 10
75.33126177198096
 20
137.1779179997618
 30
0.0
  0
VERTEX
  5
4F1
330
4E2
100
AcDbEntity
  8
Sichtbare Kanten(TC_020513_DIN)
100
AcDbVertex
100
AcDb2dVertex
 10
75.33518137342139
 20
137.1784770913298
 30
0.0
  0
VERTEX
  5
4F2
330
4E2
100
AcDbEntity
  8
Sichtbare Kanten(TC_020513_DIN)
100
AcDbVertex
100
AcDb2dVertex
 10
75.33915521508856
 20
137.1789503522093
 30
0.0
  0
VERTEX
  5
4F3
330
4E2
100
AcDbEntity
  8
Sichtbare Kanten(TC_020513_DIN)
100
AcDbVertex
100
AcDb2dVertex
 10
75.34314991838141
 20
137.1793449349577
 30
0.0
  0
VERTEX
  5
4F4
330
4E2
100
AcDbEntity
  8
Sichtbare Kanten(TC_020513_DIN)
100
AcDbVertex
100
AcDb2dVertex
 10
75.34712912446662
 20
137.1796668000395
 30
0.0
  0
VERTEX
  5
4F5
330
4E2
100
AcDbEntity
  8
Sichtbare Kanten(TC_020513_DIN)
100
AcDbVertex
100
AcDb2dVertex
 10
75.35105885869666
 20
137.1799242921049
 30
0.0
  0
VERTEX
  5
4F6
330
4E2
100
AcDbEntity
  8
Sichtbare Kanten(TC_020513_DIN)
100
AcDbVertex
100
AcDb2dVertex
 10
75.35490335828467
 20
137.1801233716185
 30
0.0
  0
VERTEX
  5
4F7
330
4E2
100
AcDbEntity
  8
Sichtbare Kanten(TC_020513_DIN)
100
AcDbVertex
100
AcDb2dVertex
 10
75.35862745649024
 20
137.1802723832304
 30
0.0
  0
VERTEX
  5
4F8
330
4E2
100
AcDbEntity
  8
Sichtbare Kanten(TC_020513_DIN)
100
AcDbVertex
100
AcDb2dVertex
 10
75.36219717866583
 20
137.1803784794981
 30
0.0
  0
VERTEX
  5
4F9
330
4E2
100
AcDbEntity
  8
Sichtbare Kanten(TC_020513_DIN)
100
AcDbVertex
100
AcDb2dVertex
 10
75.36557735807105
 20
137.1804488129789
 30
0.0
  0
VERTEX
  5
4FA
330
4E2
100
AcDbEntity
  8
Sichtbare Kanten(TC_020513_DIN)
100
AcDbVertex
100
AcDb2dVertex
 10
75.36873223191901
 20
137.1804905362303
 30
0.0
  0
VERTEX
  5
4FB
330
4E2
100
AcDbEntity
  8
Sichtbare Kanten(TC_020513_DIN)
100
AcDbVertex
100
AcDb2dVertex
 10
75.37162722951575
 20
137.1805096097166
 30
0.0
  0
VERTEX
  5
4FC
330
4E2
100
AcDbEntity
  8
Sichtbare Kanten(TC_020513_DIN)
100
AcDbVertex
100
AcDb2dVertex
 10
75.37422718412085
 20
137.1805143780882
 30
0.0
  0
SEQEND
  5
4E5
330
4E2
100
AcDbEntity
  8
Sichtbare Kanten(TC_020513_DIN)
  0
LINE
  5
4FD
330
37
100
AcDbEntity
  8
Sichtbare Kanten(TC_020513_DIN)
100
AcDbLine
 10
46.05119485379989
 20
137.1805142100494
 30
0.0
 11
46.05119485379989
 21
137.0805142100495
 31
0.0
  0
LINE
  5
4FE
330
37
100
AcDbEntity
  8
Sichtbare Kanten(TC_020513_DIN)
100
AcDbLine
 10
75.3011948537999
 20
137.0805142100494
 30
0.0
 11
75.3011948537999
 21
137.1603800758351
 31
0.0
  0
LINE
  5
4FF
330
37
100
AcDbEntity
  8
Sichtbare Kanten(TC_020513_DIN)
100
AcDbLine
 10
124.1179202486184
 20
136.2428592950422
 30
0.0
 11
95.36792024861844
 21
136.2428592950421
 31
0.0
  0
ARC
  5
500
330
37
100
AcDbEntity
  8
Sichtbare Kanten(TC_020513_DIN)
100
AcDbCircle
 10
95.36792024861844
 20
136.7428592950421
 30
0.0
 40
0.5000000000000027
100
AcDbArc
 50
180.0
 51
270.0
  0
LINE
  5
501
330
37
100
AcDbEntity
  8
Sichtbare Kanten(TC_020513_DIN)
100
AcDbLine
 10
94.86792024861843
 20
136.7428592950421
 30
0.0
 11
94.86792024861843
 21
137.0805142100494
 31
0.0
  0
LINE
  5
502
330
37
100
AcDbEntity
  8
Sichtbare Kanten(TC_020513_DIN)
100
AcDbLine
 10
124.1179202486184
 20
137.0805142100494
 30
0.0
 11
124.1179202486184
 21
136.2428592950422
 31
0.0
  0
LINE
  5
503
330
37
100
AcDbEntity
  8
Sichtbare Kanten(TC_020513_DIN)
100
AcDbLine
 10
135.4345575512091
 20
139.9805142100495
 30
0.0
 11
135.4345575512092
 21
142.3971515126402
 31
0.0
  0
LINE
  5
504
330
37
100
AcDbEntity
  8
Sichtbare Kanten(TC_020513_DIN)
100
AcDbLine
 10
135.4345575512091
 20
150.3971515126402
 30
0.0
 11
135.4345575512091
 21
142.3971515126402
 31
0.0
  0
LINE
  5
505
330
37
100
AcDbEntity
  8
Sichtbare Kanten(TC_020513_DIN)
100
AcDbLine
 10
135.4345575512091
 20
150.3971515126402
 30
0.0
 11
135.4345575512091
 21
150.5755637625478
 31
0.0
  0
LINE
  5
506
330
37
100
AcDbEntity
  8
Sichtbare Kanten(TC_020513_DIN)
100
AcDbLine
 10
135.4345575512091
 20
155.6891272262192
 30
0.0
 11
135.4345575512091
 21
150.5755637625478
 31
0.0
  0
LINE
  5
507
330
37
100
AcDbEntity
  8
Sichtbare Kanten(TC_020513_DIN)
100
AcDbLine
 10
135.4345575512091
 20
156.3971515126402
 30
0.0
 11
135.4345575512091
 21
155.6891272262192
 31
0.0
  0
LINE
  5
508
330
37
100
AcDbEntity
  8
Sichtbare Kanten(TC_020513_DIN)
100
AcDbLine
 10
135.4345575512091
 20
137.555643079453
 30
0.0
 11
135.4345575512091
 21
134.6632110880342
 31
0.0
  0
LINE
  5
509
330
37
100
AcDbEntity
  8
Sichtbare Kanten(TC_020513_DIN)
100
AcDbLine
 10
136.8345575512091
 20
139.9805142100495
 30
0.0
 11
136.8345575512091
 21
134.6632110880342
 31
0.0
  0
LINE
  5
50A
330
37
100
AcDbEntity
  8
Sichtbare Kanten(TC_020513_DIN)
100
AcDbLine
 10
136.8345575512091
 20
156.3971515126402
 30
0.0
 11
136.8345575512091
 21
155.6891272262192
 31
0.0
  0
LINE
  5
50B
330
37
100
AcDbEntity
  8
Sichtbare Kanten(TC_020513_DIN)
100
AcDbLine
 10
136.8345575512091
 20
155.6891272262192
 30
0.0
 11
136.8345575512091
 21
150.5755637625478
 31
0.0
  0
LINE
  5
50C
330
37
100
AcDbEntity
  8
Sichtbare Kanten(TC_020513_DIN)
100
AcDbLine
 10
136.8345575512091
 20
150.3971515126402
 30
0.0
 11
136.8345575512091
 21
150.5755637625478
 31
0.0
  0
LINE
  5
50D
330
37
100
AcDbEntity
  8
Sichtbare Kanten(TC_020513_DIN)
100
AcDbLine
 10
136.8345575512091
 20
150.3971515126402
 30
0.0
 11
136.8345575512091
 21
142.3971515126402
 31
0.0
  0
LINE
  5
50E
330
37
100
AcDbEntity
  8
Sichtbare Kanten(TC_020513_DIN)
100
AcDbLine
 10
136.8345575512091
 20
139.9805142100495
 30
0.0
 11
136.8345575512091
 21
142.3971515126402
 31
0.0
  0
LINE
  5
50F
330
37
100
AcDbEntity
  8
Sichtbare Kanten(TC_020513_DIN)
100
AcDbLine
 10
136.8345575512091
 20
150.3971515126402
 30
0.0
 11
135.4345575512092
 21
150.3971515126402
 31
0.0
  0
LINE
  5
510
330
37
100
AcDbEntity
  8
Sichtbare Kanten(TC_020513_DIN)
100
AcDbLine
 10
130.1179202486184
 20
138.5805142100494
 30
0.0
 11
134.0345575512092
 21
138.5805142100495
 31
0.0
  0
LINE
  5
511
330
37
100
AcDbEntity
  8
Sichtbare Kanten(TC_020513_DIN)
100
AcDbLine
 10
130.1179202486184
 20
137.1805142100495
 30
0.0
 11
134.0345575512092
 21
137.1805142100494
 31
0.0
  0
LINE
  5
512
330
37
100
AcDbEntity
  8
Sichtbare Kanten(TC_020513_DIN)
100
AcDbLine
 10
129.3263754236865
 20
138.5805142100495
 30
0.0
 11
130.1179202486184
 21
138.5805142100495
 31
0.0
  0
LINE
  5
513
330
37
100
AcDbEntity
  8
Sichtbare Kanten(TC_020513_DIN)
100
AcDbLine
 10
129.3263754236865
 20
137.1805142100495
 30
0.0
 11
130.1179202486184
 21
137.1805142100495
 31
0.0
  0
LINE
  5
514
330
37
100
AcDbEntity
  8
Sichtbare Kanten(TC_020513_DIN)
100
AcDbLine
 10
129.3263754236865
 20
138.5805142100495
 30
0.0
 11
122.9940168242309
 21
138.5805142100495
 31
0.0
  0
LINE
  5
515
330
37
100
AcDbEntity
  8
Sichtbare Kanten(TC_020513_DIN)
100
AcDbLine
 10
129.3263754236865
 20
137.1805142100495
 30
0.0
 11
122.9940168242309
 21
137.1805142100495
 31
0.0
  0
LINE
  5
516
330
37
100
AcDbEntity
  8
Sichtbare Kanten(TC_020513_DIN)
100
AcDbLine
 10
135.4345575512091
 20
134.6632110880342
 30
0.0
 11
136.8345575512091
 21
134.6632110880342
 31
0.0
  0
LINE
  5
517
330
37
100
AcDbEntity
  8
Sichtbare Kanten(TC_020513_DIN)
100
AcDbLine
 10
135.4345575512091
 20
156.3971515126402
 30
0.0
 11
136.8345575512091
 21
156.3971515126402
 31
0.0
  0
ARC
  5
518
330
37
100
AcDbEntity
  8
Sichtbare Kanten(TC_020513_DIN)
100
AcDbCircle
 10
134.0345575512092
 20
139.9805142100495
 30
0.0
 40
2.799999999999993
100
AcDbArc
 50
270.0
 51
0.0
  0
ARC
  5
519
330
37
100
AcDbEntity
  8
Sichtbare Kanten(TC_020513_DIN)
100
AcDbCircle
 10
134.0345575512092
 20
139.9805142100495
 30
0.0
 40
1.399999999999985
100
AcDbArc
 50
269.9999999999993
 51
0.0
  0
LINE
  5
51A
330
37
100
AcDbEntity
  8
Sichtbare Kanten(TC_020513_DIN)
100
AcDbLine
 10
122.9940168242309
 20
137.1805142100495
 30
0.0
 11
47.17509827818739
 21
137.1805142100495
 31
0.0
  0
LINE
  5
51B
330
37
100
AcDbEntity
  8
Sichtbare Kanten(TC_020513_DIN)
100
AcDbLine
 10
40.84273967873182
 20
137.1805142100495
 30
0.0
 11
47.17509827818738
 21
137.1805142100495
 31
0.0
  0
LINE
  5
51C
330
37
100
AcDbEntity
  8
Sichtbare Kanten(TC_020513_DIN)
100
AcDbLine
 10
40.84273967873183
 20
137.1805142100495
 30
0.0
 11
40.05119485379989
 21
137.1805142100495
 31
0.0
  0
LINE
  5
51D
330
37
100
AcDbEntity
  8
Sichtbare Kanten(TC_020513_DIN)
100
AcDbLine
 10
40.05119485379989
 20
137.1805142100495
 30
0.0
 11
36.13455755120916
 21
137.1805142100495
 31
0.0
  0
LINE
  5
51E
330
37
100
AcDbEntity
  8
Sichtbare Kanten(TC_020513_DIN)
100
AcDbLine
 10
122.9940168242309
 20
138.5805142100494
 30
0.0
 11
47.17509827818739
 21
138.5805142100494
 31
0.0
  0
LINE
  5
51F
330
37
100
AcDbEntity
  8
Sichtbare Kanten(TC_020513_DIN)
100
AcDbLine
 10
46.05119485379988
 20
136.2428592950422
 30
0.0
 11
74.80119485379988
 21
136.2428592950422
 31
0.0
  0
ARC
  5
520
330
37
100
AcDbEntity
  8
Sichtbare Kanten(TC_020513_DIN)
100
AcDbCircle
 10
74.80119485379988
 20
136.7428592950422
 30
0.0
 40
0.5000000000000027
100
AcDbArc
 50
270.0
 51
0.0
  0
LINE
  5
521
330
37
100
AcDbEntity
  8
Sichtbare Kanten(TC_020513_DIN)
100
AcDbLine
 10
75.3011948537999
 20
136.7428592950422
 30
0.0
 11
75.3011948537999
 21
137.0805142100494
 31
0.0
  0
LINE
  5
522
330
37
100
AcDbEntity
  8
Sichtbare Kanten(TC_020513_DIN)
100
AcDbLine
 10
46.05119485379988
 20
137.0805142100494
 30
0.0
 11
46.05119485379988
 21
136.2428592950422
 31
0.0
  0
LINE
  5
523
330
37
100
AcDbEntity
  8
Sichtbare Kanten(TC_020513_DIN)
100
AcDbLine
 10
40.05119485379989
 20
138.5805142100494
 30
0.0
 11
36.13455755120916
 21
138.5805142100495
 31
0.0
  0
LINE
  5
524
330
37
100
AcDbEntity
  8
Sichtbare Kanten(TC_020513_DIN)
100
AcDbLine
 10
40.84273967873183
 20
138.5805142100495
 30
0.0
 11
40.05119485379989
 21
138.5805142100495
 31
0.0
  0
LINE
  5
525
330
37
100
AcDbEntity
  8
Sichtbare Kanten(TC_020513_DIN)
100
AcDbLine
 10
40.84273967873182
 20
138.5805142100495
 30
0.0
 11
47.17509827818738
 21
138.5805142100494
 31
0.0
  0
LINE
  5
526
330
37
100
AcDbEntity
  8
Sichtbare Kanten(TC_020513_DIN)
100
AcDbLine
 10
34.73455755120916
 20
137.555643079453
 30
0.0
 11
34.73455755120916
 21
134.6632110880342
 31
0.0
  0
LINE
  5
527
330
37
100
AcDbEntity
  8
Sichtbare Kanten(TC_020513_DIN)
100
AcDbLine
 10
34.73455755120916
 20
156.3971515126402
 30
0.0
 11
34.73455755120916
 21
155.6891272262192
 31
0.0
  0
LINE
  5
528
330
37
100
AcDbEntity
  8
Sichtbare Kanten(TC_020513_DIN)
100
AcDbLine
 10
34.73455755120916
 20
155.6891272262192
 30
0.0
 11
34.73455755120916
 21
150.5755637625478
 31
0.0
  0
LINE
  5
529
330
37
100
AcDbEntity
  8
Sichtbare Kanten(TC_020513_DIN)
100
AcDbLine
 10
34.73455755120916
 20
150.3971515126402
 30
0.0
 11
34.73455755120916
 21
150.5755637625478
 31
0.0
  0
LINE
  5
52A
330
37
100
AcDbEntity
  8
Sichtbare Kanten(TC_020513_DIN)
100
AcDbLine
 10
34.73455755120916
 20
150.3971515126402
 30
0.0
 11
34.73455755120916
 21
142.3971515126402
 31
0.0
  0
LINE
  5
52B
330
37
100
AcDbEntity
  8
Sichtbare Kanten(TC_020513_DIN)
100
AcDbLine
 10
34.73455755120916
 20
139.9805142100495
 30
0.0
 11
34.73455755120915
 21
142.3971515126402
 31
0.0
  0
LINE
  5
52C
330
37
100
AcDbEntity
  8
Sichtbare Kanten(TC_020513_DIN)
100
AcDbLine
 10
33.33455755120915
 20
139.9805142100495
 30
0.0
 11
33.33455755120917
 21
142.3971515126402
 31
0.0
  0
LINE
  5
52D
330
37
100
AcDbEntity
  8
Sichtbare Kanten(TC_020513_DIN)
100
AcDbLine
 10
33.33455755120917
 20
150.3971515126402
 30
0.0
 11
33.33455755120917
 21
142.3971515126402
 31
0.0
  0
LINE
  5
52E
330
37
100
AcDbEntity
  8
Sichtbare Kanten(TC_020513_DIN)
100
AcDbLine
 10
33.33455755120917
 20
150.3971515126402
 30
0.0
 11
33.33455755120917
 21
150.5755637625478
 31
0.0
  0
LINE
  5
52F
330
37
100
AcDbEntity
  8
Sichtbare Kanten(TC_020513_DIN)
100
AcDbLine
 10
33.33455755120917
 20
155.6891272262192
 30
0.0
 11
33.33455755120917
 21
150.5755637625478
 31
0.0
  0
LINE
  5
530
330
37
100
AcDbEntity
  8
Sichtbare Kanten(TC_020513_DIN)
100
AcDbLine
 10
33.33455755120917
 20
156.3971515126402
 30
0.0
 11
33.33455755120917
 21
155.6891272262192
 31
0.0
  0
LINE
  5
531
330
37
100
AcDbEntity
  8
Sichtbare Kanten(TC_020513_DIN)
100
AcDbLine
 10
33.33455755120917
 20
139.9805142100495
 30
0.0
 11
33.33455755120917
 21
134.6632110880342
 31
0.0
  0
LINE
  5
532
330
37
100
AcDbEntity
  8
Sichtbare Kanten(TC_020513_DIN)
100
AcDbLine
 10
33.33455755120917
 20
150.3971515126402
 30
0.0
 11
34.73455755120915
 21
150.3971515126402
 31
0.0
  0
LINE
  5
533
330
37
100
AcDbEntity
  8
Sichtbare Kanten(TC_020513_DIN)
100
AcDbLine
 10
33.33455755120917
 20
134.6632110880342
 30
0.0
 11
34.73455755120916
 21
134.6632110880342
 31
0.0
  0
LINE
  5
534
330
37
100
AcDbEntity
  8
Sichtbare Kanten(TC_020513_DIN)
100
AcDbLine
 10
33.33455755120917
 20
156.3971515126402
 30
0.0
 11
34.73455755120916
 21
156.3971515126402
 31
0.0
  0
ARC
  5
535
330
37
100
AcDbEntity
  8
Sichtbare Kanten(TC_020513_DIN)
100
AcDbCircle
 10
36.13455755120914
 20
139.9805142100495
 30
0.0
 40
2.799999999999992
100
AcDbArc
 50
180.0
 51
270.0000000000002
  0
ARC
  5
536
330
37
100
AcDbEntity
  8
Sichtbare Kanten(TC_020513_DIN)
100
AcDbCircle
 10
36.13455755120916
 20
139.9805142100495
 30
0.0
 40
1.400000000000005
100
AcDbArc
 50
180.0
 51
269.9999999999998
  0
LINE
  5
537
330
37
100
AcDbEntity
  8
Sichtbare Kanten(TC_020513_DIN)
100
AcDbLine
 10
249.7908767889573
 20
166.7581368476353
 30
0.0
 11
249.7908767889573
 21
156.7581368476353
 31
0.0
  0
POLYLINE
  5
538
330
37
100
AcDbEntity
  8
Sichtbare Kanten(TC_020513_DIN)
100
AcDb2dPolyline
 66
     1
 10
0.0
 20
0.0
 30
0.0
 70
   128
  0
VERTEX
  5
539
330
538
100
AcDbEntity
  8
Sichtbare Kanten(TC_020513_DIN)
100
AcDbVertex
100
AcDb2dVertex
 10
247.4741230427316
 20
166.9791317410643
 30
0.0
  0
VERTEX
  5
53A
330
538
100
AcDbEntity
  8
Sichtbare Kanten(TC_020513_DIN)
100
AcDbVertex
100
AcDb2dVertex
 10
247.454176944404
 20
166.9880605168517
 30
0.0
  0
VERTEX
  5
53C
330
538
100
AcDbEntity
  8
Sichtbare Kanten(TC_020513_DIN)
100
AcDbVertex
100
AcDb2dVertex
 10
247.4342046200326
 20
166.9969881005461
 30
0.0
  0
VERTEX
  5
53D
330
538
100
AcDbEntity
  8
Sichtbare Kanten(TC_020513_DIN)
100
AcDbVertex
100
AcDb2dVertex
 10
247.414213222175
 20
167.0059156842406
 30
0.0
  0
VERTEX
  5
53E
330
538
100
AcDbEntity
  8
Sichtbare Kanten(TC_020513_DIN)
100
AcDbVertex
100
AcDb2dVertex
 10
247.3941979824594
 20
167.014843267935
 30
0.0
  0
VERTEX
  5
53F
330
538
100
AcDbEntity
  8
Sichtbare Kanten(TC_020513_DIN)
100
AcDbVertex
100
AcDb2dVertex
 10
247.3741636692575
 20
167.0237696595366
 30
0.0
  0
VERTEX
  5
540
330
538
100
AcDbEntity
  8
Sichtbare Kanten(TC_020513_DIN)
100
AcDbVertex
100
AcDb2dVertex
 10
247.3541102825692
 20
167.032697243231
 30
0.0
  0
VERTEX
  5
541
330
538
100
AcDbEntity
  8
Sichtbare Kanten(TC_020513_DIN)
100
AcDbVertex
100
AcDb2dVertex
 10
247.3340354382089
 20
167.0416236348326
 30
0.0
  0
VERTEX
  5
542
330
538
100
AcDbEntity
  8
Sichtbare Kanten(TC_020513_DIN)
100
AcDbVertex
100
AcDb2dVertex
 10
247.313943904548
 20
167.0505512185271
 30
0.0
  0
VERTEX
  5
543
330
538
100
AcDbEntity
  8
Sichtbare Kanten(TC_020513_DIN)
100
AcDbVertex
100
AcDb2dVertex
 10
247.2938356815866
 20
167.0594776101286
 30
0.0
  0
VERTEX
  5
544
330
538
100
AcDbEntity
  8
Sichtbare Kanten(TC_020513_DIN)
100
AcDbVertex
100
AcDb2dVertex
 10
247.2737107693246
 20
167.0684051938231
 30
0.0
  0
VERTEX
  5
545
330
538
100
AcDbEntity
  8
Sichtbare Kanten(TC_020513_DIN)
100
AcDbVertex
100
AcDb2dVertex
 10
247.2535691677621
 20
167.0773339696104
 30
0.0
  0
VERTEX
  5
546
330
538
100
AcDbEntity
  8
Sichtbare Kanten(TC_020513_DIN)
100
AcDbVertex
100
AcDb2dVertex
 10
247.2334108768991
 20
167.0862627453978
 30
0.0
  0
VERTEX
  5
547
330
538
100
AcDbEntity
  8
Sichtbare Kanten(TC_020513_DIN)
100
AcDbVertex
100
AcDb2dVertex
 10
247.2132430492929
 20
167.0951903290923
 30
0.0
  0
VERTEX
  5
548
330
538
100
AcDbEntity
  8
Sichtbare Kanten(TC_020513_DIN)
100
AcDbVertex
100
AcDb2dVertex
 10
247.1930633007577
 20
167.1041191048796
 30
0.0
  0
VERTEX
  5
549
330
538
100
AcDbEntity
  8
Sichtbare Kanten(TC_020513_DIN)
100
AcDbVertex
100
AcDb2dVertex
 10
247.1728740154794
 20
167.1130466885741
 30
0.0
  0
VERTEX
  5
54A
330
538
100
AcDbEntity
  8
Sichtbare Kanten(TC_020513_DIN)
100
AcDbVertex
100
AcDb2dVertex
 10
247.1526775776437
 20
167.1219742722685
 30
0.0
  0
VERTEX
  5
54B
330
538
100
AcDbEntity
  8
Sichtbare Kanten(TC_020513_DIN)
100
AcDbVertex
100
AcDb2dVertex
 10
247.1324716030649
 20
167.1309006638701
 30
0.0
  0
VERTEX
  5
54C
330
538
100
AcDbEntity
  8
Sichtbare Kanten(TC_020513_DIN)
100
AcDbVertex
100
AcDb2dVertex
 10
247.1122584759286
 20
167.1398282475645
 30
0.0
  0
VERTEX
  5
54D
330
538
100
AcDbEntity
  8
Sichtbare Kanten(TC_020513_DIN)
100
AcDbVertex
100
AcDb2dVertex
 10
247.092038196235
 20
167.1487546391661
 30
0.0
  0
VERTEX
  5
54E
330
538
100
AcDbEntity
  8
Sichtbare Kanten(TC_020513_DIN)
100
AcDbVertex
100
AcDb2dVertex
 10
247.0718155323556
 20
167.1576810307677
 30
0.0
  0
VERTEX
  5
54F
330
538
100
AcDbEntity
  8
Sichtbare Kanten(TC_020513_DIN)
100
AcDbVertex
100
AcDb2dVertex
 10
247.0515857159189
 20
167.1666086144621
 30
0.0
  0
VERTEX
  5
550
330
538
100
AcDbEntity
  8
Sichtbare Kanten(TC_020513_DIN)
100
AcDbVertex
100
AcDb2dVertex
 10
247.0313511311105
 20
167.1755361981566
 30
0.0
  0
VERTEX
  5
551
330
538
100
AcDbEntity
  8
Sichtbare Kanten(TC_020513_DIN)
100
AcDbVertex
100
AcDb2dVertex
 10
247.0111165463022
 20
167.1844649739439
 30
0.0
  0
VERTEX
  5
552
330
538
100
AcDbEntity
  8
Sichtbare Kanten(TC_020513_DIN)
100
AcDbVertex
100
AcDb2dVertex
 10
246.9908771931222
 20
167.1933925576384
 30
0.0
  0
SEQEND
  5
53B
330
538
100
AcDbEntity
  8
Sichtbare Kanten(TC_020513_DIN)
  0
POLYLINE
  5
553
330
37
100
AcDbEntity
  8
Sichtbare Kanten(TC_020513_DIN)
100
AcDb2dPolyline
 66
     1
 10
0.0
 20
0.0
 30
0.0
 70
   128
  0
VERTEX
  5
554
330
553
100
AcDbEntity
  8
Sichtbare Kanten(TC_020513_DIN)
100
AcDbVertex
100
AcDb2dVertex
 10
248.4833751141124
 20
166.7581367917235
 30
0.0
  0
VERTEX
  5
555
330
553
100
AcDbEntity
  8
Sichtbare Kanten(TC_020513_DIN)
100
AcDbVertex
100
AcDb2dVertex
 10
248.4356174885325
 20
166.7586756177122
 30
0.0
  0
VERTEX
  5
557
330
553
100
AcDbEntity
  8
Sichtbare Kanten(TC_020513_DIN)
100
AcDbVertex
100
AcDb2dVertex
 10
248.3873281895213
 20
166.7602956719572
 30
0.0
  0
VERTEX
  5
558
330
553
100
AcDbEntity
  8
Sichtbare Kanten(TC_020513_DIN)
100
AcDbVertex
100
AcDb2dVertex
 10
248.3385382114939
 20
166.76300172283
 30
0.0
  0
VERTEX
  5
559
330
553
100
AcDbEntity
  8
Sichtbare Kanten(TC_020513_DIN)
100
AcDbVertex
100
AcDb2dVertex
 10
248.2892833172373
 20
166.7667985387022
 30
0.0
  0
VERTEX
  5
55A
330
553
100
AcDbEntity
  8
Sichtbare Kanten(TC_020513_DIN)
100
AcDbVertex
100
AcDb2dVertex
 10
248.2395992695384
 20
166.7716885037596
 30
0.0
  0
VERTEX
  5
55B
330
553
100
AcDbEntity
  8
Sichtbare Kanten(TC_020513_DIN)
100
AcDbVertex
100
AcDb2dVertex
 10
248.1895218311839
 20
166.7776775784666
 30
0.0
  0
VERTEX
  5
55C
330
553
100
AcDbEntity
  8
Sichtbare Kanten(TC_020513_DIN)
100
AcDbVertex
100
AcDb2dVertex
 10
248.1390796124033
 20
166.784769339102
 30
0.0
  0
VERTEX
  5
55D
330
553
100
AcDbEntity
  8
Sichtbare Kanten(TC_020513_DIN)
100
AcDbVertex
100
AcDb2dVertex
 10
248.0883131443552
 20
166.7929685540373
 30
0.0
  0
VERTEX
  5
55E
330
553
100
AcDbEntity
  8
Sichtbare Kanten(TC_020513_DIN)
100
AcDbVertex
100
AcDb2dVertex
 10
248.0372534214548
 20
166.8022787995512
 30
0.0
  0
VERTEX
  5
55F
330
553
100
AcDbEntity
  8
Sichtbare Kanten(TC_020513_DIN)
100
AcDbVertex
100
AcDb2dVertex
 10
247.9859672009043
 20
166.8127000756438
 30
0.0
  0
VERTEX
  5
560
330
553
100
AcDbEntity
  8
Sichtbare Kanten(TC_020513_DIN)
100
AcDbVertex
100
AcDb2dVertex
 10
247.935715716987
 20
166.8239820428069
 30
0.0
  0
VERTEX
  5
561
330
553
100
AcDbEntity
  8
Sichtbare Kanten(TC_020513_DIN)
100
AcDbVertex
100
AcDb2dVertex
 10
247.8871927677683
 20
166.8358958192046
 30
0.0
  0
VERTEX
  5
562
330
553
100
AcDbEntity
  8
Sichtbare Kanten(TC_020513_DIN)
100
AcDbVertex
100
AcDb2dVertex
 10
247.8404937206796
 20
166.8483055062468
 30
0.0
  0
VERTEX
  5
563
330
553
100
AcDbEntity
  8
Sichtbare Kanten(TC_020513_DIN)
100
AcDbVertex
100
AcDb2dVertex
 10
247.795711558967
 20
166.8610775895293
 30
0.0
  0
VERTEX
  5
564
330
553
100
AcDbEntity
  8
Sichtbare Kanten(TC_020513_DIN)
100
AcDbVertex
100
AcDb2dVertex
 10
247.7529416500619
 20
166.8740773625548
 30
0.0
  0
VERTEX
  5
565
330
553
100
AcDbEntity
  8
Sichtbare Kanten(TC_020513_DIN)
100
AcDbVertex
100
AcDb2dVertex
 10
247.7122769772104
 20
166.8871701188261
 30
0.0
  0
VERTEX
  5
566
330
553
100
AcDbEntity
  8
Sichtbare Kanten(TC_020513_DIN)
100
AcDbVertex
100
AcDb2dVertex
 10
247.6738129078439
 20
166.9002223439391
 30
0.0
  0
VERTEX
  5
567
330
553
100
AcDbEntity
  8
Sichtbare Kanten(TC_020513_DIN)
100
AcDbVertex
100
AcDb2dVertex
 10
247.63764719358
 20
166.9130981393034
 30
0.0
  0
VERTEX
  5
568
330
553
100
AcDbEntity
  8
Sichtbare Kanten(TC_020513_DIN)
100
AcDbVertex
100
AcDb2dVertex
 10
247.6038680492929
 20
166.925663990515
 30
0.0
  0
VERTEX
  5
569
330
553
100
AcDbEntity
  8
Sichtbare Kanten(TC_020513_DIN)
100
AcDbVertex
100
AcDb2dVertex
 10
247.5725732266
 20
166.9377839989836
 30
0.0
  0
VERTEX
  5
56A
330
553
100
AcDbEntity
  8
Sichtbare Kanten(TC_020513_DIN)
100
AcDbVertex
100
AcDb2dVertex
 10
247.543858092933
 20
166.9493258423979
 30
0.0
  0
VERTEX
  5
56B
330
553
100
AcDbEntity
  8
Sichtbare Kanten(TC_020513_DIN)
100
AcDbVertex
100
AcDb2dVertex
 10
247.5178156315378
 20
166.9601536221678
 30
0.0
  0
VERTEX
  5
56C
330
553
100
AcDbEntity
  8
Sichtbare Kanten(TC_020513_DIN)
100
AcDbVertex
100
AcDb2dVertex
 10
247.4945388256601
 20
166.970133823889
 30
0.0
  0
VERTEX
  5
56D
330
553
100
AcDbEntity
  8
Sichtbare Kanten(TC_020513_DIN)
100
AcDbVertex
100
AcDb2dVertex
 10
247.4741230427316
 20
166.9791317410643
 30
0.0
  0
SEQEND
  5
556
330
553
100
AcDbEntity
  8
Sichtbare Kanten(TC_020513_DIN)
  0
LINE
  5
56E
330
37
100
AcDbEntity
  8
Sichtbare Kanten(TC_020513_DIN)
100
AcDbLine
 10
249.7908767889572
 20
156.7581368476353
 30
0.0
 11
246.9908767889564
 21
156.7581368476352
 31
0.0
  0
LINE
  5
56F
330
37
100
AcDbEntity
  8
Sichtbare Kanten(TC_020513_DIN)
100
AcDbLine
 10
248.4833754365421
 20
166.7581368476352
 30
0.0
 11
249.7908767889573
 21
166.7581368476352
 31
0.0
  0
LINE
  5
570
330
37
100
AcDbEntity
  8
Sichtbare Kanten(TC_020513_DIN)
100
AcDbLine
 10
249.7908767889601
 20
156.5728416089109
 30
0.0
 11
249.79087678896
 21
156.7581368476353
 31
0.0
  0
LINE
  5
571
330
37
100
AcDbEntity
  8
Sichtbare Kanten(TC_020513_DIN)
100
AcDbLine
 10
249.7908767889602
 20
155.1979598191378
 30
0.0
 11
249.7908767889601
 21
156.5728416089109
 31
0.0
  0
LINE
  5
572
330
37
100
AcDbEntity
  8
Sichtbare Kanten(TC_020513_DIN)
100
AcDbLine
 10
220.0242394863657
 20
139.3971515126402
 30
0.0
 11
220.0242394863657
 21
139.2594965976328
 31
0.0
  0
LINE
  5
573
330
37
100
AcDbEntity
  8
Sichtbare Kanten(TC_020513_DIN)
100
AcDbLine
 10
220.0603801480002
 20
139.3971515126402
 30
0.0
 11
220.0242394863657
 21
139.3971515126402
 31
0.0
  0
LINE
  5
574
330
37
100
AcDbEntity
  8
Sichtbare Kanten(TC_020513_DIN)
100
AcDbLine
 10
231.0123852480852
 20
152.440729384014
 30
0.0
 11
230.8852848927597
 21
150.9879656749434
 31
0.0
  0
ARC
  5
575
330
37
100
AcDbEntity
  8
Sichtbare Kanten(TC_020513_DIN)
100
AcDbCircle
 10
231.5104825971312
 20
152.3971515126402
 30
0.0
 40
0.4999999999999966
100
AcDbArc
 50
128.3440606646371
 51
175.0000000000015
  0
LINE
  5
576
330
37
100
AcDbEntity
  8
Sichtbare Kanten(TC_020513_DIN)
100
AcDbLine
 10
241.314048314173
 20
160.789301275733
 30
0.0
 11
231.2002914249385
 21
152.789301275733
 31
0.0
  0
ARC
  5
577
330
37
100
AcDbEntity
  8
Sichtbare Kanten(TC_020513_DIN)
100
AcDbCircle
 10
241.6242394863656
 20
160.3971515126402
 30
0.0
 40
0.4999999999999986
100
AcDbArc
 50
38.34406066463458
 51
128.3440606646314
  0
LINE
  5
578
330
37
100
AcDbEntity
  8
Sichtbare Kanten(TC_020513_DIN)
100
AcDbLine
 10
244.83993996018
 20
157.13775450325
 30
0.0
 11
242.0163892494585
 21
160.7073426848328
 31
0.0
  0
ARC
  5
579
330
37
100
AcDbEntity
  8
Sichtbare Kanten(TC_020513_DIN)
100
AcDbCircle
 10
245.6242394863656
 20
157.7581368476353
 30
0.0
 40
0.9999999999999875
100
AcDbArc
 50
218.3440606646322
 51
270.0
  0
LINE
  5
57A
330
37
100
AcDbEntity
  8
Sichtbare Kanten(TC_020513_DIN)
100
AcDbLine
 10
246.9908767889564
 20
156.7581368476353
 30
0.0
 11
245.6242394863656
 21
156.7581368476353
 31
0.0
  0
LINE
  5
57B
330
37
100
AcDbEntity
  8
Sichtbare Kanten(TC_020513_DIN)
100
AcDbLine
 10
243.6496850127946
 20
169.2406127814303
 30
0.0
 11
246.9908767889564
 21
167.1933930968316
 31
0.0
  0
ARC
  5
57C
330
37
100
AcDbEntity
  8
Sichtbare Kanten(TC_020513_DIN)
100
AcDbCircle
 10
225.3639578055375
 20
139.3971515126402
 30
0.0
 40
35.00000000000002
100
AcDbArc
 50
58.50330715785382
 51
90.0
  0
LINE
  5
57D
330
37
100
AcDbEntity
  8
Sichtbare Kanten(TC_020513_DIN)
100
AcDbLine
 10
217.3639578055375
 20
174.3971515126402
 30
0.0
 11
225.3639578055375
 21
174.3971515126402
 31
0.0
  0
ARC
  5
57E
330
37
100
AcDbEntity
  8
Sichtbare Kanten(TC_020513_DIN)
100
AcDbCircle
 10
217.3639578055375
 20
170.0971515126402
 30
0.0
 40
4.3
100
AcDbArc
 50
90.00000000000047
 51
298.95502437186
  0
ARC
  5
57F
330
37
100
AcDbEntity
  8
Sichtbare Kanten(TC_020513_DIN)
100
AcDbCircle
 10
221.6242394863656
 20
162.3971515126402
 30
0.0
 40
4.5
100
AcDbArc
 50
20.26853458427464
 51
118.9550243718597
  0
LINE
  5
580
330
37
100
AcDbEntity
  8
Sichtbare Kanten(TC_020513_DIN)
100
AcDbLine
 10
226.9112414420353
 20
161.0703617796544
 30
0.0
 11
225.8455964335416
 21
163.9560439157678
 31
0.0
  0
ARC
  5
581
330
37
100
AcDbEntity
  8
Sichtbare Kanten(TC_020513_DIN)
100
AcDbCircle
 10
226.4422017812379
 20
160.8971515126402
 30
0.0
 40
0.5000000000000007
100
AcDbArc
 50
325.2685345842743
 51
20.26853458427325
  0
LINE
  5
582
330
37
100
AcDbEntity
  8
Sichtbare Kanten(TC_020513_DIN)
100
AcDbLine
 10
224.6242394863656
 20
157.3971515126402
 30
0.0
 11
226.8531174227019
 21
160.6122860433389
 31
0.0
  0
LINE
  5
583
330
37
100
AcDbEntity
  8
Sichtbare Kanten(TC_020513_DIN)
100
AcDbLine
 10
224.6242394863656
 20
155.721706832977
 30
0.0
 11
224.6242394863656
 21
157.3971515126402
 31
0.0
  0
LINE
  5
584
330
37
100
AcDbEntity
  8
Sichtbare Kanten(TC_020513_DIN)
100
AcDbLine
 10
217.1242394863656
 20
139.2594965976328
 30
0.0
 11
217.1242394863656
 21
139.2985393315062
 31
0.0
  0
LINE
  5
585
330
37
100
AcDbEntity
  8
Sichtbare Kanten(TC_020513_DIN)
100
AcDbLine
 10
248.3908767889601
 20
156.5728416089109
 30
0.0
 11
248.3908767889602
 21
155.1979598191378
 31
0.0
  0
LINE
  5
586
330
37
100
AcDbEntity
  8
Sichtbare Kanten(TC_020513_DIN)
100
AcDbLine
 10
248.39087678896
 20
156.7581368476353
 30
0.0
 11
248.3908767889601
 21
156.5728416089109
 31
0.0
  0
LINE
  5
587
330
37
100
AcDbEntity
  8
Sichtbare Kanten(TC_020513_DIN)
100
AcDbLine
 10
256.1251521817569
 20
167.974774150226
 30
0.0
 11
257.6075140915524
 21
167.974774150226
 31
0.0
  0
LINE
  5
588
330
37
100
AcDbEntity
  8
Sichtbare Kanten(TC_020513_DIN)
100
AcDbLine
 10
257.6075140915524
 20
166.574774150226
 30
0.0
 11
256.1251521817569
 21
166.574774150226
 31
0.0
  0
LINE
  5
589
330
37
100
AcDbEntity
  8
Sichtbare Kanten(TC_020513_DIN)
100
AcDbLine
 10
257.6075140915524
 20
166.574774150226
 30
0.0
 11
257.6075140915524
 21
167.974774150226
 31
0.0
  0
LINE
  5
58A
330
37
100
AcDbEntity
  8
Sichtbare Kanten(TC_020513_DIN)
100
AcDbLine
 10
251.1908767889607
 20
166.574774150226
 30
0.0
 11
256.1251521817569
 21
166.574774150226
 31
0.0
  0
LINE
  5
58B
330
37
100
AcDbEntity
  8
Sichtbare Kanten(TC_020513_DIN)
100
AcDbLine
 10
256.1251521817569
 20
167.974774150226
 30
0.0
 11
251.1908767889607
 21
167.974774150226
 31
0.0
  0
LINE
  5
58C
330
37
100
AcDbEntity
  8
Sichtbare Kanten(TC_020513_DIN)
100
AcDbLine
 10
220.0242394863649
 20
139.1594965976328
 30
0.0
 11
220.0242394863649
 21
137.7594965976328
 31
0.0
  0
LINE
  5
58D
330
37
100
AcDbEntity
  8
Sichtbare Kanten(TC_020513_DIN)
100
AcDbLine
 10
220.0242394863649
 20
137.7594965976328
 30
0.0
 11
219.5242394863647
 21
137.7594965976328
 31
0.0
  0
LINE
  5
58E
330
37
100
AcDbEntity
  8
Sichtbare Kanten(TC_020513_DIN)
100
AcDbLine
 10
219.5242394863647
 20
139.1594965976328
 30
0.0
 11
220.0242394863649
 21
139.1594965976328
 31
0.0
  0
LINE
  5
58F
330
37
100
AcDbEntity
  8
Sichtbare Kanten(TC_020513_DIN)
100
AcDbLine
 10
217.6242394863647
 20
137.7594965976328
 30
0.0
 11
219.5242394863647
 21
137.7594965976328
 31
0.0
  0
LINE
  5
590
330
37
100
AcDbEntity
  8
Sichtbare Kanten(TC_020513_DIN)
100
AcDbLine
 10
219.5242394863647
 20
139.1594965976328
 30
0.0
 11
217.6242394863647
 21
139.1594965976328
 31
0.0
  0
LINE
  5
591
330
37
100
AcDbEntity
  8
Sichtbare Kanten(TC_020513_DIN)
100
AcDbLine
 10
217.6242394863647
 20
137.7594965976328
 30
0.0
 11
217.1242394863649
 21
137.7594965976328
 31
0.0
  0
LINE
  5
592
330
37
100
AcDbEntity
  8
Sichtbare Kanten(TC_020513_DIN)
100
AcDbLine
 10
217.1242394863649
 20
139.1594965976328
 30
0.0
 11
217.6242394863647
 21
139.1594965976328
 31
0.0
  0
LINE
  5
593
330
37
100
AcDbEntity
  8
Sichtbare Kanten(TC_020513_DIN)
100
AcDbLine
 10
217.1242394863649
 20
139.1594965976328
 30
0.0
 11
217.1242394863649
 21
137.7594965976328
 31
0.0
  0
LINE
  5
594
330
37
100
AcDbEntity
  8
Sichtbare Kanten(TC_020513_DIN)
100
AcDbLine
 10
251.8482838594942
 20
147.1627813739611
 30
0.0
 11
251.2218106459055
 21
148.5062575160148
 31
0.0
  0
LINE
  5
595
330
37
100
AcDbEntity
  8
Sichtbare Kanten(TC_020513_DIN)
100
AcDbLine
 10
253.1171147613456
 20
147.754446940398
 30
0.0
 11
251.8482838594943
 21
147.1627813739611
 31
0.0
  0
LINE
  5
596
330
37
100
AcDbEntity
  8
Sichtbare Kanten(TC_020513_DIN)
100
AcDbLine
 10
252.4906415477568
 20
149.0979230824517
 30
0.0
 11
253.1171147613455
 21
147.754446940398
 31
0.0
  0
LINE
  5
597
330
37
100
AcDbEntity
  8
Sichtbare Kanten(TC_020513_DIN)
100
AcDbLine
 10
248.6532149852576
 20
154.0146286862639
 30
0.0
 11
251.2218106459055
 21
148.5062575160148
 31
0.0
  0
LINE
  5
598
330
37
100
AcDbEntity
  8
Sichtbare Kanten(TC_020513_DIN)
100
AcDbLine
 10
252.4906415477568
 20
149.0979230824517
 30
0.0
 11
249.922045887109
 21
154.6062942527008
 31
0.0
  0
POLYLINE
  5
599
330
37
100
AcDbEntity
  8
Sichtbare Kanten(TC_020513_DIN)
100
AcDb2dPolyline
 66
     1
 10
0.0
 20
0.0
 30
0.0
 70
   128
  0
VERTEX
  5
59A
330
599
100
AcDbEntity
  8
Sichtbare Kanten(TC_020513_DIN)
100
AcDbVertex
100
AcDb2dVertex
 10
248.6532149731249
 20
154.0146285720045
 30
0.0
  0
VERTEX
  5
59B
330
599
100
AcDbEntity
  8
Sichtbare Kanten(TC_020513_DIN)
100
AcDbVertex
100
AcDb2dVertex
 10
248.6321053921312
 20
154.0609929390127
 30
0.0
  0
VERTEX
  5
59D
330
599
100
AcDbEntity
  8
Sichtbare Kanten(TC_020513_DIN)
100
AcDbVertex
100
AcDb2dVertex
 10
248.6118541180224
 20
154.1077140398199
 30
0.0
  0
VERTEX
  5
59E
330
599
100
AcDbEntity
  8
Sichtbare Kanten(TC_020513_DIN)
100
AcDbVertex
100
AcDb2dVertex
 10
248.5924587666124
 20
154.1547802515204
 30
0.0
  0
VERTEX
  5
59F
330
599
100
AcDbEntity
  8
Sichtbare Kanten(TC_020513_DIN)
100
AcDbVertex
100
AcDb2dVertex
 10
248.5739288746447
 20
154.2021793551619
 30
0.0
  0
VERTEX
  5
5A0
330
599
100
AcDbEntity
  8
Sichtbare Kanten(TC_020513_DIN)
100
AcDbVertex
100
AcDb2dVertex
 10
248.556264442119
 20
154.2498997278387
 30
0.0
  0
VERTEX
  5
5A1
330
599
100
AcDbEntity
  8
Sichtbare Kanten(TC_020513_DIN)
100
AcDbVertex
100
AcDb2dVertex
 10
248.5394726215929
 20
154.2979294486219
 30
0.0
  0
VERTEX
  5
5A2
330
599
100
AcDbEntity
  8
Sichtbare Kanten(TC_020513_DIN)
100
AcDbVertex
100
AcDb2dVertex
 10
248.5235557972521
 20
154.3462560005362
 30
0.0
  0
VERTEX
  5
5A3
330
599
100
AcDbEntity
  8
Sichtbare Kanten(TC_020513_DIN)
100
AcDbVertex
100
AcDb2dVertex
 10
248.5085187374681
 20
154.3948680586989
 30
0.0
  0
VERTEX
  5
5A4
330
599
100
AcDbEntity
  8
Sichtbare Kanten(TC_020513_DIN)
100
AcDbVertex
100
AcDb2dVertex
 10
248.4943662106127
 20
154.4437534041578
 30
0.0
  0
VERTEX
  5
5A5
330
599
100
AcDbEntity
  8
Sichtbare Kanten(TC_020513_DIN)
100
AcDbVertex
100
AcDb2dVertex
 10
248.4811006008714
 20
154.4928998179609
 30
0.0
  0
VERTEX
  5
5A6
330
599
100
AcDbEntity
  8
Sichtbare Kanten(TC_020513_DIN)
100
AcDbVertex
100
AcDb2dVertex
 10
248.4687266766161
 20
154.5422953791792
 30
0.0
  0
VERTEX
  5
5A7
330
599
100
AcDbEntity
  8
Sichtbare Kanten(TC_020513_DIN)
100
AcDbVertex
100
AcDb2dVertex
 10
248.4572468220323
 20
154.5919287629301
 30
0.0
  0
VERTEX
  5
5A8
330
599
100
AcDbEntity
  8
Sichtbare Kanten(TC_020513_DIN)
100
AcDbVertex
100
AcDb2dVertex
 10
248.446675342235
 20
154.6417630143339
 30
0.0
  0
VERTEX
  5
5A9
330
599
100
AcDbEntity
  8
Sichtbare Kanten(TC_020513_DIN)
100
AcDbVertex
100
AcDb2dVertex
 10
248.4370146214098
 20
154.691759986418
 30
0.0
  0
VERTEX
  5
5AA
330
599
100
AcDbEntity
  8
Sichtbare Kanten(TC_020513_DIN)
100
AcDbVertex
100
AcDb2dVertex
 10
248.4282670437425
 20
154.7419083542997
 30
0.0
  0
VERTEX
  5
5AB
330
599
100
AcDbEntity
  8
Sichtbare Kanten(TC_020513_DIN)
100
AcDbVertex
100
AcDb2dVertex
 10
248.4204326092333
 20
154.7921950049574
 30
0.0
  0
VERTEX
  5
5AC
330
599
100
AcDbEntity
  8
Sichtbare Kanten(TC_020513_DIN)
100
AcDbVertex
100
AcDb2dVertex
 10
248.4135184704393
 20
154.8426068253691
 30
0.0
  0
VERTEX
  5
5AD
330
599
100
AcDbEntity
  8
Sichtbare Kanten(TC_020513_DIN)
100
AcDbVertex
100
AcDb2dVertex
 10
248.4075198589891
 20
154.8931324906523
 30
0.0
  0
VERTEX
  5
5AE
330
599
100
AcDbEntity
  8
Sichtbare Kanten(TC_020513_DIN)
100
AcDbVertex
100
AcDb2dVertex
 10
248.4024391590685
 20
154.9437588877851
 30
0.0
  0
VERTEX
  5
5AF
330
599
100
AcDbEntity
  8
Sichtbare Kanten(TC_020513_DIN)
100
AcDbVertex
100
AcDb2dVertex
 10
248.3982811390489
 20
154.9944729037459
 30
0.0
  0
VERTEX
  5
5B0
330
599
100
AcDbEntity
  8
Sichtbare Kanten(TC_020513_DIN)
100
AcDbVertex
100
AcDb2dVertex
 10
248.3950434147447
 20
155.0452626176054
 30
0.0
  0
VERTEX
  5
5B1
330
599
100
AcDbEntity
  8
Sichtbare Kanten(TC_020513_DIN)
100
AcDbVertex
100
AcDb2dVertex
 10
248.3927307545274
 20
155.0961155123884
 30
0.0
  0
VERTEX
  5
5B2
330
599
100
AcDbEntity
  8
Sichtbare Kanten(TC_020513_DIN)
100
AcDbVertex
100
AcDb2dVertex
 10
248.3913407742112
 20
155.1470184750731
 30
0.0
  0
VERTEX
  5
5B3
330
599
100
AcDbEntity
  8
Sichtbare Kanten(TC_020513_DIN)
100
AcDbVertex
100
AcDb2dVertex
 10
248.390875857982
 20
155.1979595847303
 30
0.0
  0
SEQEND
  5
59C
330
599
100
AcDbEntity
  8
Sichtbare Kanten(TC_020513_DIN)
  0
LINE
  5
5B4
330
37
100
AcDbEntity
  8
Sichtbare Kanten(TC_020513_DIN)
100
AcDbLine
 10
249.3637567983499
 20
154.3459597751481
 30
0.0
 11
248.6532149852576
 21
154.0146286862639
 31
0.0
  0
LINE
  5
5B5
330
37
100
AcDbEntity
  8
Sichtbare Kanten(TC_020513_DIN)
100
AcDbLine
 10
249.922045887109
 20
154.6062942527008
 30
0.0
 11
249.3637567983499
 21
154.3459597751481
 31
0.0
  0
POLYLINE
  5
5B6
330
37
100
AcDbEntity
  8
Sichtbare Kanten(TC_020513_DIN)
100
AcDb2dPolyline
 66
     1
 10
0.0
 20
0.0
 30
0.0
 70
   128
  0
VERTEX
  5
5B7
330
5B6
100
AcDbEntity
  8
Sichtbare Kanten(TC_020513_DIN)
100
AcDbVertex
100
AcDb2dVertex
 10
249.7908769070237
 20
155.1979595847303
 30
0.0
  0
VERTEX
  5
5B8
330
5B6
100
AcDbEntity
  8
Sichtbare Kanten(TC_020513_DIN)
100
AcDbVertex
100
AcDb2dVertex
 10
249.7911081730455
 20
155.1724893279249
 30
0.0
  0
VERTEX
  5
5BA
330
5B6
100
AcDbEntity
  8
Sichtbare Kanten(TC_020513_DIN)
100
AcDbVertex
100
AcDb2dVertex
 10
249.7918043552965
 20
155.1470375485594
 30
0.0
  0
VERTEX
  5
5BB
330
5B6
100
AcDbEntity
  8
Sichtbare Kanten(TC_020513_DIN)
100
AcDbVertex
100
AcDb2dVertex
 10
249.7929606854051
 20
155.1216113991911
 30
0.0
  0
VERTEX
  5
5BC
330
5B6
100
AcDbEntity
  8
Sichtbare Kanten(TC_020513_DIN)
100
AcDbVertex
100
AcDb2dVertex
 10
249.7945795475572
 20
155.0962162442381
 30
0.0
  0
VERTEX
  5
5BD
330
5B6
100
AcDbEntity
  8
Sichtbare Kanten(TC_020513_DIN)
100
AcDbVertex
100
AcDb2dVertex
 10
249.796658557567
 20
155.0708592362578
 30
0.0
  0
VERTEX
  5
5BE
330
5B6
100
AcDbEntity
  8
Sichtbare Kanten(TC_020513_DIN)
100
AcDbVertex
100
AcDb2dVertex
 10
249.7991977154344
 20
155.0455463357145
 30
0.0
  0
VERTEX
  5
5BF
330
5B6
100
AcDbEntity
  8
Sichtbare Kanten(TC_020513_DIN)
100
AcDbVertex
100
AcDb2dVertex
 10
249.8021970211595
 20
155.0202835030729
 30
0.0
  0
VERTEX
  5
5C0
330
5B6
100
AcDbEntity
  8
Sichtbare Kanten(TC_020513_DIN)
100
AcDbVertex
100
AcDb2dVertex
 10
249.8056540905565
 20
154.9950772948439
 30
0.0
  0
VERTEX
  5
5C1
330
5B6
100
AcDbEntity
  8
Sichtbare Kanten(TC_020513_DIN)
100
AcDbVertex
100
AcDb2dVertex
 10
249.8095713078111
 20
154.9699342675383
 30
0.0
  0
VERTEX
  5
5C2
330
5B6
100
AcDbEntity
  8
Sichtbare Kanten(TC_020513_DIN)
100
AcDbVertex
100
AcDb2dVertex
 10
249.8139462887376
 20
154.9448597855741
 30
0.0
  0
VERTEX
  5
5C3
330
5B6
100
AcDbEntity
  8
Sichtbare Kanten(TC_020513_DIN)
100
AcDbVertex
100
AcDb2dVertex
 10
249.8187766491503
 20
154.9198615975553
 30
0.0
  0
VERTEX
  5
5C4
330
5B6
100
AcDbEntity
  8
Sichtbare Kanten(TC_020513_DIN)
100
AcDbVertex
100
AcDb2dVertex
 10
249.8240623890489
 20
154.8949444718535
 30
0.0
  0
VERTEX
  5
5C5
330
5B6
100
AcDbEntity
  8
Sichtbare Kanten(TC_020513_DIN)
100
AcDbVertex
100
AcDb2dVertex
 10
249.8298011242479
 20
154.8701274819548
 30
0.0
  0
VERTEX
  5
5C6
330
5B6
100
AcDbEntity
  8
Sichtbare Kanten(TC_020513_DIN)
100
AcDbVertex
100
AcDb2dVertex
 10
249.8359880863756
 20
154.8454297013456
 30
0.0
  0
VERTEX
  5
5C7
330
5B6
100
AcDbEntity
  8
Sichtbare Kanten(TC_020513_DIN)
100
AcDbVertex
100
AcDb2dVertex
 10
249.8426208912462
 20
154.8208564944441
 30
0.0
  0
VERTEX
  5
5C8
330
5B6
100
AcDbEntity
  8
Sichtbare Kanten(TC_020513_DIN)
100
AcDbVertex
100
AcDb2dVertex
 10
249.8496971546739
 20
154.7964138217146
 30
0.0
  0
VERTEX
  5
5C9
330
5B6
100
AcDbEntity
  8
Sichtbare Kanten(TC_020513_DIN)
100
AcDbVertex
100
AcDb2dVertex
 10
249.8572168766588
 20
154.7721076436216
 30
0.0
  0
VERTEX
  5
5CA
330
5B6
100
AcDbEntity
  8
Sichtbare Kanten(TC_020513_DIN)
100
AcDbVertex
100
AcDb2dVertex
 10
249.8651752888292
 20
154.7479445166761
 30
0.0
  0
VERTEX
  5
5CB
330
5B6
100
AcDbEntity
  8
Sichtbare Kanten(TC_020513_DIN)
100
AcDbVertex
100
AcDb2dVertex
 10
249.8735700069994
 20
154.7239298052961
 30
0.0
  0
VERTEX
  5
5CC
330
5B6
100
AcDbEntity
  8
Sichtbare Kanten(TC_020513_DIN)
100
AcDbVertex
100
AcDb2dVertex
 10
249.8824034153551
 20
154.7000694699461
 30
0.0
  0
VERTEX
  5
5CD
330
5B6
100
AcDbEntity
  8
Sichtbare Kanten(TC_020513_DIN)
100
AcDbVertex
100
AcDb2dVertex
 10
249.891668361339
 20
154.676370067137
 30
0.0
  0
VERTEX
  5
5CE
330
5B6
100
AcDbEntity
  8
Sichtbare Kanten(TC_020513_DIN)
100
AcDbVertex
100
AcDb2dVertex
 10
249.9013648449511
 20
154.6528369612867
 30
0.0
  0
VERTEX
  5
5CF
330
5B6
100
AcDbEntity
  8
Sichtbare Kanten(TC_020513_DIN)
100
AcDbVertex
100
AcDb2dVertex
 10
249.9114904820055
 20
154.6294761128599
 30
0.0
  0
VERTEX
  5
5D0
330
5B6
100
AcDbEntity
  8
Sichtbare Kanten(TC_020513_DIN)
100
AcDbVertex
100
AcDb2dVertex
 10
249.9220452725023
 20
154.6062940783674
 30
0.0
  0
SEQEND
  5
5B9
330
5B6
100
AcDbEntity
  8
Sichtbare Kanten(TC_020513_DIN)
  0
LINE
  5
5D1
330
37
100
AcDbEntity
  8
Sichtbare Kanten(TC_020513_DIN)
100
AcDbLine
 10
249.174872936024
 20
155.1979598191378
 30
0.0
 11
249.7908767889602
 21
155.1979598191378
 31
0.0
  0
LINE
  5
5D2
330
37
100
AcDbEntity
  8
Sichtbare Kanten(TC_020513_DIN)
100
AcDbLine
 10
248.3908767889602
 20
155.1979598191378
 30
0.0
 11
249.174872936024
 21
155.1979598191378
 31
0.0
  0
LINE
  5
5D3
330
37
100
AcDbEntity
  8
Sichtbare Kanten(TC_020513_DIN)
100
AcDbLine
 10
217.1242394863657
 20
139.2594965976328
 30
0.0
 11
217.1242394863656
 21
139.1594965976328
 31
0.0
  0
LINE
  5
5D4
330
37
100
AcDbEntity
  8
Sichtbare Kanten(TC_020513_DIN)
100
AcDbLine
 10
220.0242394863656
 20
139.1594965976328
 30
0.0
 11
220.0242394863657
 21
139.2594965976328
 31
0.0
  0
POLYLINE
  5
5D5
330
37
100
AcDbEntity
  8
Sichtbare Kanten(TC_020513_DIN)
100
AcDb2dPolyline
 66
     1
 10
0.0
 20
0.0
 30
0.0
 70
   128
  0
VERTEX
  5
5D6
330
5D5
100
AcDbEntity
  8
Sichtbare Kanten(TC_020513_DIN)
100
AcDbVertex
100
AcDb2dVertex
 10
248.8815579830738
 20
166.7581367917235
 30
0.0
  0
VERTEX
  5
5D7
330
5D5
100
AcDbEntity
  8
Sichtbare Kanten(TC_020513_DIN)
100
AcDbVertex
100
AcDb2dVertex
 10
248.9472709118459
 20
166.8499541707213
 30
0.0
  0
VERTEX
  5
5D9
330
5D5
100
AcDbEntity
  8
Sichtbare Kanten(TC_020513_DIN)
100
AcDbVertex
100
AcDb2dVertex
 10
249.0167031704518
 20
166.9391334481413
 30
0.0
  0
VERTEX
  5
5DA
330
5D5
100
AcDbEntity
  8
Sichtbare Kanten(TC_020513_DIN)
100
AcDbVertex
100
AcDb2dVertex
 10
249.0897808491322
 20
167.0255554146941
 30
0.0
  0
VERTEX
  5
5DB
330
5D5
100
AcDbEntity
  8
Sichtbare Kanten(TC_020513_DIN)
100
AcDbVertex
100
AcDb2dVertex
 10
249.1663895069692
 20
167.1090579457457
 30
0.0
  0
VERTEX
  5
5DC
330
5D5
100
AcDbEntity
  8
Sichtbare Kanten(TC_020513_DIN)
100
AcDbVertex
100
AcDb2dVertex
 10
249.2462072788808
 20
167.1892869897063
 30
0.0
  0
VERTEX
  5
5DD
330
5D5
100
AcDbEntity
  8
Sichtbare Kanten(TC_020513_DIN)
100
AcDbVertex
100
AcDb2dVertex
 10
249.3290863453481
 20
167.2661221451933
 30
0.0
  0
VERTEX
  5
5DE
330
5D5
100
AcDbEntity
  8
Sichtbare Kanten(TC_020513_DIN)
100
AcDbVertex
100
AcDb2dVertex
 10
249.4149146496388
 20
167.3394799657042
 30
0.0
  0
VERTEX
  5
5DF
330
5D5
100
AcDbEntity
  8
Sichtbare Kanten(TC_020513_DIN)
100
AcDbVertex
100
AcDb2dVertex
 10
249.5035801350209
 20
167.4092817731078
 30
0.0
  0
VERTEX
  5
5E0
330
5D5
100
AcDbEntity
  8
Sichtbare Kanten(TC_020513_DIN)
100
AcDbVertex
100
AcDb2dVertex
 10
249.594973128948
 20
167.4754441209013
 30
0.0
  0
VERTEX
  5
5E1
330
5D5
100
AcDbEntity
  8
Sichtbare Kanten(TC_020513_DIN)
100
AcDbVertex
100
AcDb2dVertex
 10
249.6889791905019
 20
167.537885946768
 30
0.0
  0
VERTEX
  5
5E2
330
5D5
100
AcDbEntity
  8
Sichtbare Kanten(TC_020513_DIN)
100
AcDbVertex
100
AcDb2dVertex
 10
249.7854886471364
 20
167.5965249962981
 30
0.0
  0
VERTEX
  5
5E3
330
5D5
100
AcDbEntity
  8
Sichtbare Kanten(TC_020513_DIN)
100
AcDbVertex
100
AcDb2dVertex
 10
249.8843870579336
 20
167.6512802071745
 30
0.0
  0
VERTEX
  5
5E4
330
5D5
100
AcDbEntity
  8
Sichtbare Kanten(TC_020513_DIN)
100
AcDbVertex
100
AcDb2dVertex
 10
249.9855647503469
 20
167.7020693249876
 30
0.0
  0
VERTEX
  5
5E5
330
5D5
100
AcDbEntity
  8
Sichtbare Kanten(TC_020513_DIN)
100
AcDbVertex
100
AcDb2dVertex
 10
250.0888309895132
 20
167.7487779088194
 30
0.0
  0
VERTEX
  5
5E6
330
5D5
100
AcDbEntity
  8
Sichtbare Kanten(TC_020513_DIN)
100
AcDbVertex
100
AcDb2dVertex
 10
250.1938329159353
 20
167.7912414498503
 30
0.0
  0
VERTEX
  5
5E7
330
5D5
100
AcDbEntity
  8
Sichtbare Kanten(TC_020513_DIN)
100
AcDbVertex
100
AcDb2dVertex
 10
250.3004227100942
 20
167.8294098801787
 30
0.0
  0
VERTEX
  5
5E8
330
5D5
100
AcDbEntity
  8
Sichtbare Kanten(TC_020513_DIN)
100
AcDbVertex
100
AcDb2dVertex
 10
250.4084716259573
 20
167.8632379002745
 30
0.0
  0
VERTEX
  5
5E9
330
5D5
100
AcDbEntity
  8
Sichtbare Kanten(TC_020513_DIN)
100
AcDbVertex
100
AcDb2dVertex
 10
250.5178437649343
 20
167.8926825947935
 30
0.0
  0
VERTEX
  5
5EA
330
5D5
100
AcDbEntity
  8
Sichtbare Kanten(TC_020513_DIN)
100
AcDbVertex
100
AcDb2dVertex
 10
250.6283936916922
 20
167.9176950879271
 30
0.0
  0
VERTEX
  5
5EB
330
5D5
100
AcDbEntity
  8
Sichtbare Kanten(TC_020513_DIN)
100
AcDbVertex
100
AcDb2dVertex
 10
250.7398114620779
 20
167.9382026620085
 30
0.0
  0
VERTEX
  5
5EC
330
5D5
100
AcDbEntity
  8
Sichtbare Kanten(TC_020513_DIN)
100
AcDbVertex
100
AcDb2dVertex
 10
250.8519063412283
 20
167.954180283087
 30
0.0
  0
VERTEX
  5
5ED
330
5D5
100
AcDbEntity
  8
Sichtbare Kanten(TC_020513_DIN)
100
AcDbVertex
100
AcDb2dVertex
 10
250.9645424305532
 20
167.965611261862
 30
0.0
  0
VERTEX
  5
5EE
330
5D5
100
AcDbEntity
  8
Sichtbare Kanten(TC_020513_DIN)
100
AcDbVertex
100
AcDb2dVertex
 10
251.0775790630911
 20
167.9724812932188
 30
0.0
  0
VERTEX
  5
5EF
330
5D5
100
AcDbEntity
  8
Sichtbare Kanten(TC_020513_DIN)
100
AcDbVertex
100
AcDb2dVertex
 10
251.190877956066
 20
167.9747736878569
 30
0.0
  0
SEQEND
  5
5D8
330
5D5
100
AcDbEntity
  8
Sichtbare Kanten(TC_020513_DIN)
  0
POLYLINE
  5
5F0
330
37
100
AcDbEntity
  8
Sichtbare Kanten(TC_020513_DIN)
100
AcDb2dPolyline
 66
     1
 10
0.0
 20
0.0
 30
0.0
 70
   128
  0
VERTEX
  5
5F1
330
5F0
100
AcDbEntity
  8
Sichtbare Kanten(TC_020513_DIN)
100
AcDbVertex
100
AcDb2dVertex
 10
251.190877956066
 20
166.5747738309081
 30
0.0
  0
VERTEX
  5
5F2
330
5F0
100
AcDbEntity
  8
Sichtbare Kanten(TC_020513_DIN)
100
AcDbVertex
100
AcDb2dVertex
 10
251.1192307888601
 20
166.5729391999419
 30
0.0
  0
VERTEX
  5
5F4
330
5F0
100
AcDbEntity
  8
Sichtbare Kanten(TC_020513_DIN)
100
AcDbVertex
100
AcDb2dVertex
 10
251.047917407665
 20
166.5674555726225
 30
0.0
  0
VERTEX
  5
5F5
330
5F0
100
AcDbEntity
  8
Sichtbare Kanten(TC_020513_DIN)
100
AcDbVertex
100
AcDb2dVertex
 10
250.977071326885
 20
166.5583503670866
 30
0.0
  0
VERTEX
  5
5F6
330
5F0
100
AcDbEntity
  8
Sichtbare Kanten(TC_020513_DIN)
100
AcDbVertex
100
AcDb2dVertex
 10
250.9068284451101
 20
166.5456545777495
 30
0.0
  0
VERTEX
  5
5F7
330
5F0
100
AcDbEntity
  8
Sichtbare Kanten(TC_020513_DIN)
100
AcDbVertex
100
AcDb2dVertex
 10
250.837329429302
 20
166.5293968148406
 30
0.0
  0
VERTEX
  5
5F8
330
5F0
100
AcDbEntity
  8
Sichtbare Kanten(TC_020513_DIN)
100
AcDbVertex
100
AcDb2dVertex
 10
250.7687077938649
 20
166.5096044964964
 30
0.0
  0
VERTEX
  5
5F9
330
5F0
100
AcDbEntity
  8
Sichtbare Kanten(TC_020513_DIN)
100
AcDbVertex
100
AcDb2dVertex
 10
250.7011042057607
 20
166.4863086171324
 30
0.0
  0
VERTEX
  5
5FA
330
5F0
100
AcDbEntity
  8
Sichtbare Kanten(TC_020513_DIN)
100
AcDbVertex
100
AcDb2dVertex
 10
250.6346545635793
 20
166.459537786978
 30
0.0
  0
VERTEX
  5
5FB
330
5F0
100
AcDbEntity
  8
Sichtbare Kanten(TC_020513_DIN)
100
AcDbVertex
100
AcDb2dVertex
 10
250.5696139752004
 20
166.4293790288145
 30
0.0
  0
VERTEX
  5
5FC
330
5F0
100
AcDbEntity
  8
Sichtbare Kanten(TC_020513_DIN)
100
AcDbVertex
100
AcDb2dVertex
 10
250.5063305317495
 20
166.3960004277403
 30
0.0
  0
VERTEX
  5
5FD
330
5F0
100
AcDbEntity
  8
Sichtbare Kanten(TC_020513_DIN)
100
AcDbVertex
100
AcDb2dVertex
 10
250.4449210583302
 20
166.3594890065367
 30
0.0
  0
VERTEX
  5
5FE
330
5F0
100
AcDbEntity
  8
Sichtbare Kanten(TC_020513_DIN)
100
AcDbVertex
100
AcDb2dVertex
 10
250.3855023800466
 20
166.3199246354277
 30
0.0
  0
VERTEX
  5
5FF
330
5F0
100
AcDbEntity
  8
Sichtbare Kanten(TC_020513_DIN)
100
AcDbVertex
100
AcDb2dVertex
 10
250.3281865536306
 20
166.277390760916
 30
0.0
  0
VERTEX
  5
600
330
5F0
100
AcDbEntity
  8
Sichtbare Kanten(TC_020513_DIN)
100
AcDbVertex
100
AcDb2dVertex
 10
250.2730880200001
 20
166.2319696374114
 30
0.0
  0
VERTEX
  5
601
330
5F0
100
AcDbEntity
  8
Sichtbare Kanten(TC_020513_DIN)
100
AcDbVertex
100
AcDb2dVertex
 10
250.2203188358876
 20
166.1837423272307
 30
0.0
  0
VERTEX
  5
602
330
5F0
100
AcDbEntity
  8
Sichtbare Kanten(TC_020513_DIN)
100
AcDbVertex
100
AcDb2dVertex
 10
250.1699934422108
 20
166.1327922768767
 30
0.0
  0
VERTEX
  5
603
330
5F0
100
AcDbEntity
  8
Sichtbare Kanten(TC_020513_DIN)
100
AcDbVertex
100
AcDb2dVertex
 10
250.1222787319753
 20
166.0792625374968
 30
0.0
  0
VERTEX
  5
604
330
5F0
100
AcDbEntity
  8
Sichtbare Kanten(TC_020513_DIN)
100
AcDbVertex
100
AcDb2dVertex
 10
250.0774441181752
 20
166.0234594769652
 30
0.0
  0
VERTEX
  5
605
330
5F0
100
AcDbEntity
  8
Sichtbare Kanten(TC_020513_DIN)
100
AcDbVertex
100
AcDb2dVertex
 10
250.0355754314991
 20
165.9655201859648
 30
0.0
  0
VERTEX
  5
606
330
5F0
100
AcDbEntity
  8
Sichtbare Kanten(TC_020513_DIN)
100
AcDbVertex
100
AcDb2dVertex
 10
249.9967489658924
 20
165.9055650658781
 30
0.0
  0
VERTEX
  5
607
330
5F0
100
AcDbEntity
  8
Sichtbare Kanten(TC_020513_DIN)
100
AcDbVertex
100
AcDb2dVertex
 10
249.961033862743
 20
165.8437157101805
 30
0.0
  0
VERTEX
  5
608
330
5F0
100
AcDbEntity
  8
Sichtbare Kanten(TC_020513_DIN)
100
AcDbVertex
100
AcDb2dVertex
 10
249.9285016476246
 20
165.7800901360686
 30
0.0
  0
VERTEX
  5
609
330
5F0
100
AcDbEntity
  8
Sichtbare Kanten(TC_020513_DIN)
100
AcDbVertex
100
AcDb2dVertex
 10
249.8992262302967
 20
165.7148111291106
 30
0.0
  0
VERTEX
  5
60A
330
5F0
100
AcDbEntity
  8
Sichtbare Kanten(TC_020513_DIN)
100
AcDbVertex
100
AcDb2dVertex
 10
249.8732815205189
 20
165.647997898596
 30
0.0
  0
SEQEND
  5
5F3
330
5F0
100
AcDbEntity
  8
Sichtbare Kanten(TC_020513_DIN)
  0
LINE
  5
60B
330
37
100
AcDbEntity
  8
Sichtbare Kanten(TC_020513_DIN)
100
AcDbLine
 10
251.1908767889607
 20
167.1907752805075
 30
0.0
 11
251.1908767889607
 21
166.574774150226
 31
0.0
  0
LINE
  5
60C
330
37
100
AcDbEntity
  8
Sichtbare Kanten(TC_020513_DIN)
100
AcDbLine
 10
251.1908767889607
 20
167.974774150226
 30
0.0
 11
251.1908767889607
 21
167.1907752805075
 31
0.0
  0
POLYLINE
  5
60D
330
37
100
AcDbEntity
  8
Sichtbare Kanten(TC_020513_DIN)
100
AcDb2dPolyline
 66
     1
 10
0.0
 20
0.0
 30
0.0
 70
   128
  0
VERTEX
  5
60E
330
60D
100
AcDbEntity
  8
Sichtbare Kanten(TC_020513_DIN)
100
AcDbVertex
100
AcDb2dVertex
 10
249.8732815205189
 20
165.647997898596
 30
0.0
  0
VERTEX
  5
60F
330
60D
100
AcDbEntity
  8
Sichtbare Kanten(TC_020513_DIN)
100
AcDbVertex
100
AcDb2dVertex
 10
249.8683867870899
 20
165.6341064400847
 30
0.0
  0
VERTEX
  5
611
330
60D
100
AcDbEntity
  8
Sichtbare Kanten(TC_020513_DIN)
100
AcDbVertex
100
AcDb2dVertex
 10
249.8630891262623
 20
165.6184590287383
 30
0.0
  0
VERTEX
  5
612
330
60D
100
AcDbEntity
  8
Sichtbare Kanten(TC_020513_DIN)
100
AcDbVertex
100
AcDb2dVertex
 10
249.8574719845386
 20
165.6011510319884
 30
0.0
  0
VERTEX
  5
613
330
60D
100
AcDbEntity
  8
Sichtbare Kanten(TC_020513_DIN)
100
AcDbVertex
100
AcDb2dVertex
 10
249.8516259609791
 20
165.5822825856383
 30
0.0
  0
VERTEX
  5
614
330
60D
100
AcDbEntity
  8
Sichtbare Kanten(TC_020513_DIN)
100
AcDbVertex
100
AcDb2dVertex
 10
249.8456345020863
 20
165.5619514413054
 30
0.0
  0
VERTEX
  5
615
330
60D
100
AcDbEntity
  8
Sichtbare Kanten(TC_020513_DIN)
100
AcDbVertex
100
AcDb2dVertex
 10
249.839590591106
 20
165.5402553506071
 30
0.0
  0
VERTEX
  5
616
330
60D
100
AcDbEntity
  8
Sichtbare Kanten(TC_020513_DIN)
100
AcDbVertex
100
AcDb2dVertex
 10
249.8335776745411
 20
165.5172944493468
 30
0.0
  0
VERTEX
  5
617
330
60D
100
AcDbEntity
  8
Sichtbare Kanten(TC_020513_DIN)
100
AcDbVertex
100
AcDb2dVertex
 10
249.8276839672657
 20
165.4931652970488
 30
0.0
  0
VERTEX
  5
618
330
60D
100
AcDbEntity
  8
Sichtbare Kanten(TC_020513_DIN)
100
AcDbVertex
100
AcDb2dVertex
 10
249.8219976841541
 20
165.4679656453307
 30
0.0
  0
VERTEX
  5
619
330
60D
100
AcDbEntity
  8
Sichtbare Kanten(TC_020513_DIN)
100
AcDbVertex
100
AcDb2dVertex
 10
249.8166070400806
 20
165.4417968220885
 30
0.0
  0
VERTEX
  5
61A
330
60D
100
AcDbEntity
  8
Sichtbare Kanten(TC_020513_DIN)
100
AcDbVertex
100
AcDb2dVertex
 10
249.8116002499195
 20
165.4147541947539
 30
0.0
  0
VERTEX
  5
61B
330
60D
100
AcDbEntity
  8
Sichtbare Kanten(TC_020513_DIN)
100
AcDbVertex
100
AcDb2dVertex
 10
249.8071179806323
 20
165.3875077195341
 30
0.0
  0
VERTEX
  5
61C
330
60D
100
AcDbEntity
  8
Sichtbare Kanten(TC_020513_DIN)
100
AcDbVertex
100
AcDb2dVertex
 10
249.8033271252246
 20
165.3616202302153
 30
0.0
  0
VERTEX
  5
61D
330
60D
100
AcDbEntity
  8
Sichtbare Kanten(TC_020513_DIN)
100
AcDbVertex
100
AcDb2dVertex
 10
249.8001776157947
 20
165.3371835179503
 30
0.0
  0
VERTEX
  5
61E
330
60D
100
AcDbEntity
  8
Sichtbare Kanten(TC_020513_DIN)
100
AcDbVertex
100
AcDb2dVertex
 10
249.7976098476978
 20
165.3142071194823
 30
0.0
  0
VERTEX
  5
61F
330
60D
100
AcDbEntity
  8
Sichtbare Kanten(TC_020513_DIN)
100
AcDbVertex
100
AcDb2dVertex
 10
249.7955618321033
 20
165.2927005715544
 30
0.0
  0
VERTEX
  5
620
330
60D
100
AcDbEntity
  8
Sichtbare Kanten(TC_020513_DIN)
100
AcDbVertex
100
AcDb2dVertex
 10
249.793978732738
 20
165.2726757950957
 30
0.0
  0
VERTEX
  5
621
330
60D
100
AcDbEntity
  8
Sichtbare Kanten(TC_020513_DIN)
100
AcDbVertex
100
AcDb2dVertex
 10
249.7928009449573
 20
165.2541399426634
 30
0.0
  0
VERTEX
  5
622
330
60D
100
AcDbEntity
  8
Sichtbare Kanten(TC_020513_DIN)
100
AcDbVertex
100
AcDb2dVertex
 10
249.7919640957446
 20
165.2371037430937
 30
0.0
  0
VERTEX
  5
623
330
60D
100
AcDbEntity
  8
Sichtbare Kanten(TC_020513_DIN)
100
AcDbVertex
100
AcDb2dVertex
 10
249.7914157330126
 20
165.2215779252226
 30
0.0
  0
VERTEX
  5
624
330
60D
100
AcDbEntity
  8
Sichtbare Kanten(TC_020513_DIN)
100
AcDbVertex
100
AcDb2dVertex
 10
249.7910914837451
 20
165.2075720257933
 30
0.0
  0
VERTEX
  5
625
330
60D
100
AcDbEntity
  8
Sichtbare Kanten(TC_020513_DIN)
100
AcDbVertex
100
AcDb2dVertex
 10
249.7909317432971
 20
165.1950967736418
 30
0.0
  0
VERTEX
  5
626
330
60D
100
AcDbEntity
  8
Sichtbare Kanten(TC_020513_DIN)
100
AcDbVertex
100
AcDb2dVertex
 10
249.7908816753955
 20
165.1841605134184
 30
0.0
  0
VERTEX
  5
627
330
60D
100
AcDbEntity
  8
Sichtbare Kanten(TC_020513_DIN)
100
AcDbVertex
100
AcDb2dVertex
 10
249.7908769070239
 20
165.1747739739592
 30
0.0
  0
SEQEND
  5
610
330
60D
100
AcDbEntity
  8
Sichtbare Kanten(TC_020513_DIN)
  0
LINE
  5
628
330
37
100
AcDbEntity
  8
Sichtbare Kanten(TC_020513_DIN)
100
AcDbLine
 10
242.3742394863683
 20
134.6471515126402
 30
0.0
 11
243.3742394863683
 21
134.0698012434506
 31
0.0
  0
LINE
  5
629
330
37
100
AcDbEntity
  8
Sichtbare Kanten(TC_020513_DIN)
100
AcDbLine
 10
237.3742394863665
 20
134.0698012434506
 30
0.0
 11
243.3742394863683
 21
134.0698012434506
 31
0.0
  0
LINE
  5
62A
330
37
100
AcDbEntity
  8
Sichtbare Kanten(TC_020513_DIN)
100
AcDbLine
 10
237.3742394863668
 20
134.6471515126402
 30
0.0
 11
242.3742394863683
 21
134.6471515126402
 31
0.0
  0
LINE
  5
62B
330
37
100
AcDbEntity
  8
Sichtbare Kanten(TC_020513_DIN)
100
AcDbLine
 10
237.3742394863665
 20
134.0698012434506
 30
0.0
 11
223.1242394863665
 21
134.0698012434506
 31
0.0
  0
LINE
  5
62C
330
37
100
AcDbEntity
  8
Sichtbare Kanten(TC_020513_DIN)
100
AcDbLine
 10
237.3742394863668
 20
134.6471515126402
 30
0.0
 11
223.1242394863668
 21
134.6471515126402
 31
0.0
  0
LINE
  5
62D
330
37
100
AcDbEntity
  8
Sichtbare Kanten(TC_020513_DIN)
100
AcDbLine
 10
223.1242394863665
 20
134.0698012434506
 30
0.0
 11
223.1242394863665
 21
135.0642336009377
 31
0.0
  0
LINE
  5
62E
330
37
100
AcDbEntity
  8
Sichtbare Kanten(TC_020513_DIN)
100
AcDbLine
 10
225.2208490945868
 20
135.7245017818298
 30
0.0
 11
237.3742394863665
 21
135.7245017818298
 31
0.0
  0
LINE
  5
62F
330
37
100
AcDbEntity
  8
Sichtbare Kanten(TC_020513_DIN)
100
AcDbLine
 10
237.3742394863668
 20
135.1471515126402
 30
0.0
 11
223.4583935512199
 21
135.1471515126402
 31
0.0
  0
LINE
  5
630
330
37
100
AcDbEntity
  8
Sichtbare Kanten(TC_020513_DIN)
100
AcDbLine
 10
242.3742394863683
 20
135.1471515126402
 30
0.0
 11
242.3742394863683
 21
134.6471515126402
 31
0.0
  0
LINE
  5
631
330
37
100
AcDbEntity
  8
Sichtbare Kanten(TC_020513_DIN)
100
AcDbLine
 10
237.3742394863668
 20
135.1471515126402
 30
0.0
 11
242.3742394863683
 21
135.1471515126402
 31
0.0
  0
LINE
  5
632
330
37
100
AcDbEntity
  8
Sichtbare Kanten(TC_020513_DIN)
100
AcDbLine
 10
243.3742394863683
 20
135.7245017818298
 30
0.0
 11
237.3742394863665
 21
135.7245017818298
 31
0.0
  0
LINE
  5
633
330
37
100
AcDbEntity
  8
Sichtbare Kanten(TC_020513_DIN)
100
AcDbLine
 10
243.3742394863683
 20
135.7245017818298
 30
0.0
 11
242.3742394863683
 21
135.1471515126402
 31
0.0
  0
LINE
  5
634
330
37
100
AcDbEntity
  8
Sichtbare Kanten(TC_020513_DIN)
100
AcDbLine
 10
242.3742394863683
 20
136.6471515126402
 30
0.0
 11
243.3742394863683
 21
136.0698012434506
 31
0.0
  0
LINE
  5
635
330
37
100
AcDbEntity
  8
Sichtbare Kanten(TC_020513_DIN)
100
AcDbLine
 10
237.3742394863665
 20
136.0698012434506
 30
0.0
 11
243.3742394863683
 21
136.0698012434506
 31
0.0
  0
LINE
  5
636
330
37
100
AcDbEntity
  8
Sichtbare Kanten(TC_020513_DIN)
100
AcDbLine
 10
237.3742394863668
 20
136.6471515126402
 30
0.0
 11
242.3742394863683
 21
136.6471515126402
 31
0.0
  0
LINE
  5
637
330
37
100
AcDbEntity
  8
Sichtbare Kanten(TC_020513_DIN)
100
AcDbLine
 10
237.3742394863665
 20
136.0698012434506
 30
0.0
 11
226.0208353202898
 21
136.0698012434506
 31
0.0
  0
LINE
  5
638
330
37
100
AcDbEntity
  8
Sichtbare Kanten(TC_020513_DIN)
100
AcDbLine
 10
237.3742394863668
 20
136.6471515126402
 30
0.0
 11
227.1343203147414
 21
136.6471515126402
 31
0.0
  0
LINE
  5
639
330
37
100
AcDbEntity
  8
Sichtbare Kanten(TC_020513_DIN)
100
AcDbLine
 10
228.7601201100963
 20
137.7245017818298
 30
0.0
 11
237.3742394863665
 21
137.7245017818298
 31
0.0
  0
LINE
  5
63A
330
37
100
AcDbEntity
  8
Sichtbare Kanten(TC_020513_DIN)
100
AcDbLine
 10
237.3742394863668
 20
137.1471515126402
 30
0.0
 11
227.9462739076306
 21
137.1471515126402
 31
0.0
  0
LINE
  5
63B
330
37
100
AcDbEntity
  8
Sichtbare Kanten(TC_020513_DIN)
100
AcDbLine
 10
242.3742394863683
 20
137.1471515126402
 30
0.0
 11
242.3742394863683
 21
136.6471515126402
 31
0.0
  0
LINE
  5
63C
330
37
100
AcDbEntity
  8
Sichtbare Kanten(TC_020513_DIN)
100
AcDbLine
 10
237.3742394863668
 20
137.1471515126402
 30
0.0
 11
242.3742394863683
 21
137.1471515126402
 31
0.0
  0
LINE
  5
63D
330
37
100
AcDbEntity
  8
Sichtbare Kanten(TC_020513_DIN)
100
AcDbLine
 10
243.3742394863683
 20
137.7245017818298
 30
0.0
 11
237.3742394863665
 21
137.7245017818298
 31
0.0
  0
LINE
  5
63E
330
37
100
AcDbEntity
  8
Sichtbare Kanten(TC_020513_DIN)
100
AcDbLine
 10
243.3742394863683
 20
137.7245017818298
 30
0.0
 11
242.3742394863683
 21
137.1471515126402
 31
0.0
  0
LINE
  5
63F
330
37
100
AcDbEntity
  8
Sichtbare Kanten(TC_020513_DIN)
100
AcDbLine
 10
237.3742394863665
 20
138.0698012434506
 30
0.0
 11
229.1970012370537
 21
138.0698012434506
 31
0.0
  0
LINE
  5
640
330
37
100
AcDbEntity
  8
Sichtbare Kanten(TC_020513_DIN)
100
AcDbLine
 10
230.9138327267562
 20
139.7245017818298
 30
0.0
 11
237.3742394863665
 21
139.7245017818298
 31
0.0
  0
LINE
  5
641
330
37
100
AcDbEntity
  8
Sichtbare Kanten(TC_020513_DIN)
100
AcDbLine
 10
237.3742394863665
 20
138.0698012434506
 30
0.0
 11
243.3742394863683
 21
138.0698012434506
 31
0.0
  0
LINE
  5
642
330
37
100
AcDbEntity
  8
Sichtbare Kanten(TC_020513_DIN)
100
AcDbLine
 10
242.3742394863683
 20
138.6471515126402
 30
0.0
 11
243.3742394863683
 21
138.0698012434506
 31
0.0
  0
LINE
  5
643
330
37
100
AcDbEntity
  8
Sichtbare Kanten(TC_020513_DIN)
100
AcDbLine
 10
237.3742394863668
 20
138.6471515126402
 30
0.0
 11
242.3742394863683
 21
138.6471515126402
 31
0.0
  0
LINE
  5
644
330
37
100
AcDbEntity
  8
Sichtbare Kanten(TC_020513_DIN)
100
AcDbLine
 10
237.3742394863668
 20
138.6471515126402
 30
0.0
 11
229.8596628443268
 21
138.6471515126402
 31
0.0
  0
LINE
  5
645
330
37
100
AcDbEntity
  8
Sichtbare Kanten(TC_020513_DIN)
100
AcDbLine
 10
237.3742394863668
 20
139.1471515126402
 30
0.0
 11
230.3753511722998
 21
139.1471515126402
 31
0.0
  0
LINE
  5
646
330
37
100
AcDbEntity
  8
Sichtbare Kanten(TC_020513_DIN)
100
AcDbLine
 10
242.3742394863683
 20
139.1471515126402
 30
0.0
 11
242.3742394863683
 21
138.6471515126402
 31
0.0
  0
LINE
  5
647
330
37
100
AcDbEntity
  8
Sichtbare Kanten(TC_020513_DIN)
100
AcDbLine
 10
237.3742394863668
 20
139.1471515126402
 30
0.0
 11
242.3742394863683
 21
139.1471515126402
 31
0.0
  0
LINE
  5
648
330
37
100
AcDbEntity
  8
Sichtbare Kanten(TC_020513_DIN)
100
AcDbLine
 10
243.3742394863683
 20
139.7245017818298
 30
0.0
 11
237.3742394863665
 21
139.7245017818298
 31
0.0
  0
LINE
  5
649
330
37
100
AcDbEntity
  8
Sichtbare Kanten(TC_020513_DIN)
100
AcDbLine
 10
243.3742394863683
 20
139.7245017818298
 30
0.0
 11
242.3742394863683
 21
139.1471515126402
 31
0.0
  0
LINE
  5
64A
330
37
100
AcDbEntity
  8
Sichtbare Kanten(TC_020513_DIN)
100
AcDbLine
 10
243.3742394863683
 20
138.0698012434506
 30
0.0
 11
243.3742394863683
 21
137.7245017818298
 31
0.0
  0
LINE
  5
64B
330
37
100
AcDbEntity
  8
Sichtbare Kanten(TC_020513_DIN)
100
AcDbLine
 10
243.3742394863683
 20
136.0698012434506
 30
0.0
 11
243.3742394863683
 21
135.7245017818298
 31
0.0
  0
LINE
  5
64C
330
37
100
AcDbEntity
  8
Sichtbare Kanten(TC_020513_DIN)
100
AcDbLine
 10
243.3742394863683
 20
134.0698012434506
 30
0.0
 11
243.3742394863683
 21
79.39715151264024
 31
0.0
  0
LINE
  5
64D
330
37
100
AcDbEntity
  8
Sichtbare Kanten(TC_020513_DIN)
100
AcDbLine
 10
243.3742394863683
 20
153.3971515126402
 30
0.0
 11
243.3742394863683
 21
150.3971515126402
 31
0.0
  0
LINE
  5
64E
330
37
100
AcDbEntity
  8
Sichtbare Kanten(TC_020513_DIN)
100
AcDbLine
 10
243.3742394863683
 20
143.3971515126402
 30
0.0
 11
243.3742394863683
 21
139.7245017818298
 31
0.0
  0
LINE
  5
64F
330
37
100
AcDbEntity
  8
Sichtbare Kanten(TC_020513_DIN)
100
AcDbLine
 10
199.8742394863683
 20
138.0698012434506
 30
0.0
 11
199.8742394863683
 21
137.7245017818298
 31
0.0
  0
LINE
  5
650
330
37
100
AcDbEntity
  8
Sichtbare Kanten(TC_020513_DIN)
100
AcDbLine
 10
199.8742394863683
 20
136.0698012434506
 30
0.0
 11
199.8742394863683
 21
135.7245017818298
 31
0.0
  0
LINE
  5
651
330
37
100
AcDbEntity
  8
Sichtbare Kanten(TC_020513_DIN)
100
AcDbLine
 10
199.8742394863683
 20
153.3971515126402
 30
0.0
 11
199.8742394863683
 21
139.7245017818298
 31
0.0
  0
LINE
  5
652
330
37
100
AcDbEntity
  8
Sichtbare Kanten(TC_020513_DIN)
100
AcDbLine
 10
199.8742394863683
 20
134.0698012434506
 30
0.0
 11
199.8742394863683
 21
79.39715151264024
 31
0.0
  0
LINE
  5
653
330
37
100
AcDbEntity
  8
Sichtbare Kanten(TC_020513_DIN)
100
AcDbLine
 10
205.8742394863665
 20
139.7245017818298
 30
0.0
 11
214.6242394863665
 21
139.7245017818298
 31
0.0
  0
LINE
  5
654
330
37
100
AcDbEntity
  8
Sichtbare Kanten(TC_020513_DIN)
100
AcDbLine
 10
220.1242394863665
 20
139.2985393315062
 30
0.0
 11
220.1242394863665
 21
138.0698012434506
 31
0.0
  0
LINE
  5
655
330
37
100
AcDbEntity
  8
Sichtbare Kanten(TC_020513_DIN)
100
AcDbLine
 10
220.1242394863665
 20
138.0698012434506
 30
0.0
 11
220.0242394863665
 21
138.0698012434506
 31
0.0
  0
LINE
  5
656
330
37
100
AcDbEntity
  8
Sichtbare Kanten(TC_020513_DIN)
100
AcDbLine
 10
217.1242394863666
 20
138.0698012434506
 30
0.0
 11
216.9051287274968
 21
138.0698012434506
 31
0.0
  0
LINE
  5
657
330
37
100
AcDbEntity
  8
Sichtbare Kanten(TC_020513_DIN)
100
AcDbLine
 10
214.6242394863665
 20
138.0698012434506
 30
0.0
 11
205.8742394863665
 21
138.0698012434506
 31
0.0
  0
LINE
  5
658
330
37
100
AcDbEntity
  8
Sichtbare Kanten(TC_020513_DIN)
100
AcDbLine
 10
199.8742394863683
 20
138.0698012434506
 30
0.0
 11
205.8742394863665
 21
138.0698012434506
 31
0.0
  0
LINE
  5
659
330
37
100
AcDbEntity
  8
Sichtbare Kanten(TC_020513_DIN)
100
AcDbLine
 10
199.8742394863683
 20
139.7245017818298
 30
0.0
 11
200.8742394863683
 21
139.1471515126402
 31
0.0
  0
LINE
  5
65A
330
37
100
AcDbEntity
  8
Sichtbare Kanten(TC_020513_DIN)
100
AcDbLine
 10
205.8742394863665
 20
139.7245017818298
 30
0.0
 11
199.8742394863683
 21
139.7245017818298
 31
0.0
  0
LINE
  5
65B
330
37
100
AcDbEntity
  8
Sichtbare Kanten(TC_020513_DIN)
100
AcDbLine
 10
205.8742394863668
 20
139.1471515126402
 30
0.0
 11
200.8742394863683
 21
139.1471515126402
 31
0.0
  0
LINE
  5
65C
330
37
100
AcDbEntity
  8
Sichtbare Kanten(TC_020513_DIN)
100
AcDbLine
 10
205.8742394863668
 20
138.6471515126402
 30
0.0
 11
214.6242394863668
 21
138.6471515126402
 31
0.0
  0
LINE
  5
65D
330
37
100
AcDbEntity
  8
Sichtbare Kanten(TC_020513_DIN)
100
AcDbLine
 10
216.892188678798
 20
138.6471515126402
 30
0.0
 11
217.1242394863668
 21
138.6471515126402
 31
0.0
  0
LINE
  5
65E
330
37
100
AcDbEntity
  8
Sichtbare Kanten(TC_020513_DIN)
100
AcDbLine
 10
220.0242394863668
 20
138.6471515126402
 30
0.0
 11
220.1242394863669
 21
138.6471515126402
 31
0.0
  0
LINE
  5
65F
330
37
100
AcDbEntity
  8
Sichtbare Kanten(TC_020513_DIN)
100
AcDbLine
 10
205.8742394863668
 20
139.1471515126402
 30
0.0
 11
214.6242394863668
 21
139.1471515126402
 31
0.0
  0
LINE
  5
660
330
37
100
AcDbEntity
  8
Sichtbare Kanten(TC_020513_DIN)
100
AcDbLine
 10
217.0431006562826
 20
139.1471515126402
 30
0.0
 11
217.1242394863668
 21
139.1471515126402
 31
0.0
  0
LINE
  5
661
330
37
100
AcDbEntity
  8
Sichtbare Kanten(TC_020513_DIN)
100
AcDbLine
 10
220.0242394863668
 20
139.1471515126402
 30
0.0
 11
220.1242394863669
 21
139.1471515126402
 31
0.0
  0
LINE
  5
662
330
37
100
AcDbEntity
  8
Sichtbare Kanten(TC_020513_DIN)
100
AcDbLine
 10
200.8742394863683
 20
139.1471515126402
 30
0.0
 11
200.8742394863683
 21
138.6471515126402
 31
0.0
  0
LINE
  5
663
330
37
100
AcDbEntity
  8
Sichtbare Kanten(TC_020513_DIN)
100
AcDbLine
 10
205.8742394863668
 20
138.6471515126402
 30
0.0
 11
200.8742394863683
 21
138.6471515126402
 31
0.0
  0
LINE
  5
664
330
37
100
AcDbEntity
  8
Sichtbare Kanten(TC_020513_DIN)
100
AcDbLine
 10
200.8742394863683
 20
138.6471515126402
 30
0.0
 11
199.8742394863683
 21
138.0698012434506
 31
0.0
  0
LINE
  5
665
330
37
100
AcDbEntity
  8
Sichtbare Kanten(TC_020513_DIN)
100
AcDbLine
 10
205.8742394863665
 20
137.7245017818298
 30
0.0
 11
214.6242394863665
 21
137.7245017818298
 31
0.0
  0
LINE
  5
666
330
37
100
AcDbEntity
  8
Sichtbare Kanten(TC_020513_DIN)
100
AcDbLine
 10
217.0086769404895
 20
137.7245017818298
 30
0.0
 11
220.1242394863665
 21
137.7245017818298
 31
0.0
  0
LINE
  5
667
330
37
100
AcDbEntity
  8
Sichtbare Kanten(TC_020513_DIN)
100
AcDbLine
 10
220.1242394863665
 20
137.7245017818298
 30
0.0
 11
220.1242394863665
 21
137.4957636937742
 31
0.0
  0
LINE
  5
668
330
37
100
AcDbEntity
  8
Sichtbare Kanten(TC_020513_DIN)
100
AcDbLine
 10
214.6242394863665
 20
136.0698012434506
 30
0.0
 11
205.8742394863665
 21
136.0698012434506
 31
0.0
  0
LINE
  5
669
330
37
100
AcDbEntity
  8
Sichtbare Kanten(TC_020513_DIN)
100
AcDbLine
 10
205.8742394863665
 20
135.7245017818298
 30
0.0
 11
214.6549932072645
 21
135.7245017818298
 31
0.0
  0
LINE
  5
66A
330
37
100
AcDbEntity
  8
Sichtbare Kanten(TC_020513_DIN)
100
AcDbLine
 10
220.1242394863665
 20
134.6698212651671
 30
0.0
 11
220.1242394863665
 21
134.0698012434506
 31
0.0
  0
LINE
  5
66B
330
37
100
AcDbEntity
  8
Sichtbare Kanten(TC_020513_DIN)
100
AcDbLine
 10
220.1242394863665
 20
134.0698012434506
 30
0.0
 11
205.8742394863665
 21
134.0698012434506
 31
0.0
  0
LINE
  5
66C
330
37
100
AcDbEntity
  8
Sichtbare Kanten(TC_020513_DIN)
100
AcDbLine
 10
199.8742394863683
 20
135.7245017818298
 30
0.0
 11
200.8742394863683
 21
135.1471515126402
 31
0.0
  0
LINE
  5
66D
330
37
100
AcDbEntity
  8
Sichtbare Kanten(TC_020513_DIN)
100
AcDbLine
 10
205.8742394863665
 20
135.7245017818298
 30
0.0
 11
199.8742394863683
 21
135.7245017818298
 31
0.0
  0
LINE
  5
66E
330
37
100
AcDbEntity
  8
Sichtbare Kanten(TC_020513_DIN)
100
AcDbLine
 10
205.8742394863668
 20
135.1471515126402
 30
0.0
 11
200.8742394863683
 21
135.1471515126402
 31
0.0
  0
LINE
  5
66F
330
37
100
AcDbEntity
  8
Sichtbare Kanten(TC_020513_DIN)
100
AcDbLine
 10
205.8742394863668
 20
134.6471515126402
 30
0.0
 11
220.1242394863669
 21
134.6471515126402
 31
0.0
  0
LINE
  5
670
330
37
100
AcDbEntity
  8
Sichtbare Kanten(TC_020513_DIN)
100
AcDbLine
 10
205.8742394863668
 20
135.1471515126402
 30
0.0
 11
215.8995538509454
 21
135.1471515126402
 31
0.0
  0
LINE
  5
671
330
37
100
AcDbEntity
  8
Sichtbare Kanten(TC_020513_DIN)
100
AcDbLine
 10
200.8742394863683
 20
135.1471515126402
 30
0.0
 11
200.8742394863683
 21
134.6471515126402
 31
0.0
  0
LINE
  5
672
330
37
100
AcDbEntity
  8
Sichtbare Kanten(TC_020513_DIN)
100
AcDbLine
 10
205.8742394863668
 20
134.6471515126402
 30
0.0
 11
200.8742394863683
 21
134.6471515126402
 31
0.0
  0
LINE
  5
673
330
37
100
AcDbEntity
  8
Sichtbare Kanten(TC_020513_DIN)
100
AcDbLine
 10
199.8742394863683
 20
134.0698012434506
 30
0.0
 11
205.8742394863665
 21
134.0698012434506
 31
0.0
  0
LINE
  5
674
330
37
100
AcDbEntity
  8
Sichtbare Kanten(TC_020513_DIN)
100
AcDbLine
 10
200.8742394863683
 20
134.6471515126402
 30
0.0
 11
199.8742394863683
 21
134.0698012434506
 31
0.0
  0
LINE
  5
675
330
37
100
AcDbEntity
  8
Sichtbare Kanten(TC_020513_DIN)
100
AcDbLine
 10
199.8742394863683
 20
137.7245017818298
 30
0.0
 11
200.8742394863683
 21
137.1471515126402
 31
0.0
  0
LINE
  5
676
330
37
100
AcDbEntity
  8
Sichtbare Kanten(TC_020513_DIN)
100
AcDbLine
 10
205.8742394863665
 20
137.7245017818298
 30
0.0
 11
199.8742394863683
 21
137.7245017818298
 31
0.0
  0
LINE
  5
677
330
37
100
AcDbEntity
  8
Sichtbare Kanten(TC_020513_DIN)
100
AcDbLine
 10
205.8742394863668
 20
137.1471515126402
 30
0.0
 11
200.8742394863683
 21
137.1471515126402
 31
0.0
  0
LINE
  5
678
330
37
100
AcDbEntity
  8
Sichtbare Kanten(TC_020513_DIN)
100
AcDbLine
 10
205.8742394863668
 20
136.6471515126402
 30
0.0
 11
214.6242394863668
 21
136.6471515126402
 31
0.0
  0
LINE
  5
679
330
37
100
AcDbEntity
  8
Sichtbare Kanten(TC_020513_DIN)
100
AcDbLine
 10
205.8742394863668
 20
137.1471515126402
 30
0.0
 11
214.6242394863668
 21
137.1471515126402
 31
0.0
  0
LINE
  5
67A
330
37
100
AcDbEntity
  8
Sichtbare Kanten(TC_020513_DIN)
100
AcDbLine
 10
217.3994946149753
 20
137.1471515126402
 30
0.0
 11
219.8489843577584
 21
137.1471515126402
 31
0.0
  0
LINE
  5
67B
330
37
100
AcDbEntity
  8
Sichtbare Kanten(TC_020513_DIN)
100
AcDbLine
 10
200.8742394863683
 20
137.1471515126402
 30
0.0
 11
200.8742394863683
 21
136.6471515126402
 31
0.0
  0
LINE
  5
67C
330
37
100
AcDbEntity
  8
Sichtbare Kanten(TC_020513_DIN)
100
AcDbLine
 10
205.8742394863668
 20
136.6471515126402
 30
0.0
 11
200.8742394863683
 21
136.6471515126402
 31
0.0
  0
LINE
  5
67D
330
37
100
AcDbEntity
  8
Sichtbare Kanten(TC_020513_DIN)
100
AcDbLine
 10
199.8742394863683
 20
136.0698012434506
 30
0.0
 11
205.8742394863665
 21
136.0698012434506
 31
0.0
  0
LINE
  5
67E
330
37
100
AcDbEntity
  8
Sichtbare Kanten(TC_020513_DIN)
100
AcDbLine
 10
200.8742394863683
 20
136.6471515126402
 30
0.0
 11
199.8742394863683
 21
136.0698012434506
 31
0.0
  0
CIRCLE
  5
67F
330
37
100
AcDbEntity
  8
Sichtbare Kanten(TC_020513_DIN)
100
AcDbCircle
 10
221.6242394863647
 20
149.3971515126403
 30
0.0
 40
4.700000000000002
  0
LINE
  5
680
330
37
100
AcDbEntity
  8
Sichtbare Kanten(TC_020513_DIN)
100
AcDbLine
 10
205.8742394863671
 20
77.39715151264023
 30
0.0
 11
237.3742394863672
 21
77.39715151264023
 31
0.0
  0
LINE
  5
681
330
37
100
AcDbEntity
  8
Sichtbare Kanten(TC_020513_DIN)
100
AcDbLine
 10
205.8742394863672
 20
77.39715151264023
 30
0.0
 11
201.8742394863683
 21
77.39715151264023
 31
0.0
  0
LINE
  5
682
330
37
100
AcDbEntity
  8
Sichtbare Kanten(TC_020513_DIN)
100
AcDbLine
 10
241.3742394863683
 20
77.39715151264023
 30
0.0
 11
237.3742394863672
 21
77.39715151264023
 31
0.0
  0
ARC
  5
683
330
37
100
AcDbEntity
  8
Sichtbare Kanten(TC_020513_DIN)
100
AcDbCircle
 10
201.8742394863683
 20
79.39715151264024
 30
0.0
 40
2.00000000000001
100
AcDbArc
 50
180.0
 51
270.0
  0
ARC
  5
684
330
37
100
AcDbEntity
  8
Sichtbare Kanten(TC_020513_DIN)
100
AcDbCircle
 10
241.3742394863683
 20
79.39715151264024
 30
0.0
 40
2.00000000000001
100
AcDbArc
 50
270.0
 51
0.0
  0
LINE
  5
685
330
37
100
AcDbEntity
  8
Sichtbare Kanten(TC_020513_DIN)
100
AcDbLine
 10
243.6242394863683
 20
153.3971515126402
 30
0.0
 11
237.6242394863665
 21
153.3971515126402
 31
0.0
  0
LINE
  5
686
330
37
100
AcDbEntity
  8
Sichtbare Kanten(TC_020513_DIN)
100
AcDbLine
 10
205.6242394863665
 20
153.3971515126402
 30
0.0
 11
215.8796768398284
 21
153.3971515126402
 31
0.0
  0
LINE
  5
687
330
37
100
AcDbEntity
  8
Sichtbare Kanten(TC_020513_DIN)
100
AcDbLine
 10
231.9687476150821
 20
153.3971515126402
 30
0.0
 11
237.6242394863664
 21
153.3971515126402
 31
0.0
  0
LINE
  5
688
330
37
100
AcDbEntity
  8
Sichtbare Kanten(TC_020513_DIN)
100
AcDbLine
 10
205.6242394863665
 20
153.3971515126402
 30
0.0
 11
199.6242394863682
 21
153.3971515126402
 31
0.0
  0
LINE
  5
689
330
37
100
AcDbEntity
  8
Sichtbare Kanten(TC_020513_DIN)
100
AcDbLine
 10
243.6242394863683
 20
158.3971515126402
 30
0.0
 11
243.6242394863683
 21
153.3971515126402
 31
0.0
  0
LINE
  5
68A
330
37
100
AcDbEntity
  8
Sichtbare Kanten(TC_020513_DIN)
100
AcDbLine
 10
199.6242394863682
 20
158.3971515126402
 30
0.0
 11
199.6242394863682
 21
153.3971515126402
 31
0.0
  0
LINE
  5
68B
330
37
100
AcDbEntity
  8
Sichtbare Kanten(TC_020513_DIN)
100
AcDbLine
 10
199.6242394863682
 20
158.3971515126402
 30
0.0
 11
205.6242394863665
 21
158.3971515126402
 31
0.0
  0
LINE
  5
68C
330
37
100
AcDbEntity
  8
Sichtbare Kanten(TC_020513_DIN)
100
AcDbLine
 10
225.3174851079896
 20
158.3971515126402
 30
0.0
 11
205.6242394863665
 21
158.3971515126402
 31
0.0
  0
LINE
  5
68D
330
37
100
AcDbEntity
  8
Sichtbare Kanten(TC_020513_DIN)
100
AcDbLine
 10
238.2898456708537
 20
158.3971515126402
 30
0.0
 11
243.6242394863682
 21
158.3971515126402
 31
0.0
  0
LINE
  5
68E
330
37
100
AcDbEntity
  8
Sichtbare Kanten(TC_020513_DIN)
100
AcDbLine
 10
252.3131283752562
 20
137.1805142100495
 30
0.0
 11
255.4242394863692
 21
137.1805142100495
 31
0.0
  0
LINE
  5
68F
330
37
100
AcDbEntity
  8
Sichtbare Kanten(TC_020513_DIN)
100
AcDbLine
 10
252.3131283752562
 20
137.1805142100495
 30
0.0
 11
251.924239486367
 21
137.1805142100495
 31
0.0
  0
LINE
  5
690
330
37
100
AcDbEntity
  8
Sichtbare Kanten(TC_020513_DIN)
100
AcDbLine
 10
244.9242394863688
 20
137.1805142100495
 30
0.0
 11
244.8865845713612
 21
137.1805142100494
 31
0.0
  0
LINE
  5
691
330
37
100
AcDbEntity
  8
Sichtbare Kanten(TC_020513_DIN)
100
AcDbLine
 10
255.4242394863692
 20
137.1805142100495
 30
0.0
 11
255.4242394863692
 21
138.5805142100494
 31
0.0
  0
LINE
  5
692
330
37
100
AcDbEntity
  8
Sichtbare Kanten(TC_020513_DIN)
100
AcDbLine
 10
244.7865845713612
 20
136.2428592950422
 30
0.0
 11
243.3865845713612
 21
136.2428592950422
 31
0.0
  0
LINE
  5
693
330
37
100
AcDbEntity
  8
Sichtbare Kanten(TC_020513_DIN)
100
AcDbLine
 10
243.3865845713612
 20
137.0805142100494
 30
0.0
 11
243.3865845713612
 21
136.2428592950422
 31
0.0
  0
LINE
  5
694
330
37
100
AcDbEntity
  8
Sichtbare Kanten(TC_020513_DIN)
100
AcDbLine
 10
244.7865845713613
 20
137.0805142100494
 30
0.0
 11
244.7865845713612
 21
136.2428592950422
 31
0.0
  0
LINE
  5
695
330
37
100
AcDbEntity
  8
Sichtbare Kanten(TC_020513_DIN)
100
AcDbLine
 10
244.9242394863688
 20
138.5805142100494
 30
0.0
 11
244.8865845713612
 21
138.5805142100495
 31
0.0
  0
LINE
  5
696
330
37
100
AcDbEntity
  8
Sichtbare Kanten(TC_020513_DIN)
100
AcDbLine
 10
252.3131283752562
 20
138.5805142100495
 30
0.0
 11
251.924239486367
 21
138.5805142100495
 31
0.0
  0
LINE
  5
697
330
37
100
AcDbEntity
  8
Sichtbare Kanten(TC_020513_DIN)
100
AcDbLine
 10
252.3131283752562
 20
138.5805142100495
 30
0.0
 11
255.4242394863692
 21
138.5805142100495
 31
0.0
  0
CIRCLE
  5
698
330
37
100
AcDbEntity
  8
Sichtbare Kanten(TC_020513_DIN)
100
AcDbCircle
 10
218.6242394863651
 20
138.3971515126402
 30
0.0
 40
1.75
  0
LINE
  5
699
330
37
100
AcDbEntity
  8
Sichtbare Kanten(TC_020513_DIN)
100
AcDbLine
 10
251.924239486365
 20
139.9805142100495
 30
0.0
 11
251.924239486365
 21
142.3971515126402
 31
0.0
  0
ARC
  5
69A
330
37
100
AcDbEntity
  8
Sichtbare Kanten(TC_020513_DIN)
100
AcDbCircle
 10
243.9242394863651
 20
142.3971515126402
 30
0.0
 40
7.999999999999998
100
AcDbArc
 50
0.0
 51
90.0
  0
LINE
  5
69B
330
37
100
AcDbEntity
  8
Sichtbare Kanten(TC_020513_DIN)
100
AcDbLine
 10
243.9242394863651
 20
150.3971515126402
 30
0.0
 11
231.6242394863651
 21
150.3971515126402
 31
0.0
  0
ARC
  5
69C
330
37
100
AcDbEntity
  8
Sichtbare Kanten(TC_020513_DIN)
100
AcDbCircle
 10
231.6242394863651
 20
150.8971515126402
 30
0.0
 40
0.4999999999999974
100
AcDbArc
 50
220.0290181764505
 51
270.0
  0
ARC
  5
69D
330
37
100
AcDbEntity
  8
Sichtbare Kanten(TC_020513_DIN)
100
AcDbCircle
 10
215.9270041494335
 20
137.7120537588507
 30
0.0
 40
19.99999999999997
100
AcDbArc
 50
40.02901817645286
 51
64.00779443620876
  0
ARC
  5
69E
330
37
100
AcDbEntity
  8
Sichtbare Kanten(TC_020513_DIN)
100
AcDbCircle
 10
221.624239486365
 20
149.3971515126402
 30
0.0
 40
7.000000000000001
100
AcDbArc
 50
64.00779443620884
 51
180.0
  0
LINE
  5
69F
330
37
100
AcDbEntity
  8
Sichtbare Kanten(TC_020513_DIN)
100
AcDbLine
 10
214.6242394863651
 20
149.3971515126402
 30
0.0
 11
214.6242394863651
 21
135.8971515126402
 31
0.0
  0
ARC
  5
6A0
330
37
100
AcDbEntity
  8
Sichtbare Kanten(TC_020513_DIN)
100
AcDbCircle
 10
215.124239486365
 20
135.8971515126402
 30
0.0
 40
0.5000000000000038
100
AcDbArc
 50
180.0
 51
251.6923269007138
  0
ARC
  5
6A1
330
37
100
AcDbEntity
  8
Sichtbare Kanten(TC_020513_DIN)
100
AcDbCircle
 10
219.6789737010809
 20
149.6632110880342
 30
0.0
 40
15.0
100
AcDbArc
 50
251.692326900713
 51
334.1179484035667
  0
ARC
  5
6A2
330
37
100
AcDbEntity
  8
Sichtbare Kanten(TC_020513_DIN)
100
AcDbCircle
 10
233.6242394863651
 20
142.8971515126402
 30
0.0
 40
0.5000000000000049
100
AcDbArc
 50
90.0
 51
154.1179484035673
  0
LINE
  5
6A3
330
37
100
AcDbEntity
  8
Sichtbare Kanten(TC_020513_DIN)
100
AcDbLine
 10
233.6242394863651
 20
143.3971515126402
 30
0.0
 11
243.9242394863651
 21
143.3971515126402
 31
0.0
  0
ARC
  5
6A4
330
37
100
AcDbEntity
  8
Sichtbare Kanten(TC_020513_DIN)
100
AcDbCircle
 10
243.9242394863651
 20
142.3971515126402
 30
0.0
 40
1.000000000000003
100
AcDbArc
 50
0.0
 51
90.0
  0
LINE
  5
6A5
330
37
100
AcDbEntity
  8
Sichtbare Kanten(TC_020513_DIN)
100
AcDbLine
 10
244.924239486365
 20
142.3971515126402
 30
0.0
 11
244.924239486365
 21
139.9805142100495
 31
0.0
  0
LINE
  5
6A6
330
37
100
AcDbEntity
  8
Sichtbare Kanten(TC_020513_DIN)
100
AcDbLine
 10
251.9242394863659
 20
137.1805142100495
 30
0.0
 11
244.9242394863659
 21
137.1805142100495
 31
0.0
  0
LINE
  5
6A7
330
37
100
AcDbEntity
  8
Sichtbare Kanten(TC_020513_DIN)
100
AcDbLine
 10
244.9242394863659
 20
137.1805142100495
 30
0.0
 11
244.924239486365
 21
139.9805142100495
 31
0.0
  0
LINE
  5
6A8
330
37
100
AcDbEntity
  8
Sichtbare Kanten(TC_020513_DIN)
100
AcDbLine
 10
251.924239486365
 20
139.9805142100495
 30
0.0
 11
251.9242394863659
 21
137.1805142100495
 31
0.0
  0
ARC
  5
6A9
330
37
100
AcDbEntity
  8
Sichtbare Kanten(TC_020513_DIN)
100
AcDbCircle
 10
244.8865845713612
 20
137.0805142100494
 30
0.0
 40
0.1000000000000067
100
AcDbArc
 50
90.0
 51
180.0
  0
ARC
  5
6AA
330
37
100
AcDbEntity
  8
Sichtbare Kanten(TC_020513_DIN)
100
AcDbCircle
 10
244.8865845713612
 20
137.0805142100494
 30
0.0
 40
1.499999999999999
100
AcDbArc
 50
90.0
 51
180.0
  0
ARC
  5
6AB
330
37
100
AcDbEntity
  8
Stich 1-Linien(TC_020513_DIN)
 48
28.13566207885742
100
AcDbCircle
 10
218.6242394863651
 20
138.3971515126402
 30
0.0
 40
48.93394997172077
100
AcDbArc
 50
0.0
 51
54.47534038946962
  0
DIMENSION
  5
6AC
330
37
100
AcDbEntity
  8
Bemaßungen(TC_020513_DIN)
  6
Continuous
 62
     7
370
    25
100
AcDbDimension
  2
*D9
 10
98.74655755120915
 20
61.39715151264024
 30
0.0
 11
85.08455755120918
 21
61.39715151264024
 31
0.0
 70
   160
  1
 M25
 42
27.324
  3
STANDARD-TC_020513_DIN
100
AcDbAlignedDimension
 13
71.42255755120915
 23
77.39715151264023
 33
0.0
 14
98.74655755120915
 24
78.89715151264025
 34
0.0
 50
180.0
100
AcDbRotatedDimension
1001
ACAD
1000
DSTYLE
1002
{
1070
   271
1070
     2
1070
   272
1070
     2
1070
    48
1040
0.0
1070
    47
1040
0.0
1002
}
  0
DIMENSION
  5
772
330
37
100
AcDbEntity
  8
Bemaßungen(TC_020513_DIN)
  6
Continuous
 62
     7
370
    25
100
AcDbDimension
  2
*D10
 10
38.33455755120917
 20
51.39715151264026
 30
0.0
 11
85.08455755120918
 21
51.39715151264026
 31
0.0
 70
   160
  1
<>
 42
93.49999999999999
  3
STANDARD-TC_020513_DIN
100
AcDbAlignedDimension
 13
131.8345575512092
 23
79.39715151264024
 33
0.0
 14
38.33455755120917
 24
79.39715151264024
 34
0.0
 50
180.0
100
AcDbRotatedDimension
1001
ACAD
1000
DSTYLE
1002
{
1070
   271
1070
     2
1070
   272
1070
     2
1070
    48
1040
0.0
1070
    47
1040
0.0
1002
}
  0
DIMENSION
  5
832
330
37
100
AcDbEntity
  8
Bemaßungen(TC_020513_DIN)
  6
Continuous
 62
     7
370
    25
100
AcDbDimension
  2
*D11
 10
138.8345575512091
 20
179.6463846617154
 30
0.0
 11
85.08455755120918
 21
179.6463846617154
 31
0.0
 70
   160
  1
<>
 42
107.5
  3
STANDARD-TC_020513_DIN
100
AcDbAlignedDimension
 13
31.33455755120917
 23
149.3971515126403
 33
0.0
 14
138.8345575512091
 24
149.3971515126403
 34
0.0
100
AcDbRotatedDimension
1001
ACAD
1000
DSTYLE
1002
{
1070
   271
1070
     2
1070
   272
1070
     2
1070
    48
1040
0.0
1070
    47
1040
0.0
1002
}
  0
DIMENSION
  5
8F2
330
37
100
AcDbEntity
  8
Bemaßungen(TC_020513_DIN)
  6
Continuous
 62
     7
370
    25
100
AcDbDimension
  2
*D12
 10
267.5581894580858
 20
179.6463846617154
 30
0.0
 11
233.7162144722271
 21
179.6463846617154
 31
0.0
 70
   160
  1
<>
 42
67.68394997171748
  3
STANDARD-TC_020513_DIN
100
AcDbAlignedDimension
 13
199.8742394863683
 23
134.0698012434506
 33
0.0
 14
267.5581894580858
 24
138.3971515126402
 34
0.0
 50
180.0
100
AcDbRotatedDimension
1001
ACAD
1000
DSTYLE
1002
{
1070
   271
1070
     0
1070
   272
1070
     2
1070
    48
1040
0.0
1070
    47
1040
0.0
1002
}
  0
DIMENSION
  5
9B2
330
37
100
AcDbEntity
  8
Bemaßungen(TC_020513_DIN)
  6
Continuous
 62
     7
370
    25
100
AcDbDimension
  2
*D13
 10
243.3742394863683
 20
51.39715151264022
 30
0.0
 11
221.6242394863683
 21
51.39715151264022
 31
0.0
 70
   160
  1
<>
 42
43.5
  3
STANDARD-TC_020513_DIN
100
AcDbAlignedDimension
 13
199.8742394863683
 23
79.39715151264024
 33
0.0
 14
243.3742394863683
 24
79.39715151264024
 34
0.0
 50
180.0
100
AcDbRotatedDimension
1001
ACAD
1000
DSTYLE
1002
{
1070
   271
1070
     2
1070
   272
1070
     2
1070
    48
1040
0.0
1070
    47
1040
0.0
1002
}
  0
DIMENSION
  5
A77
330
37
100
AcDbEntity
  8
Bemaßungen(TC_020513_DIN)
  6
Continuous
 62
     7
370
    25
100
AcDbDimension
  2
*D14
 10
186.4573413515743
 20
158.3971515126402
 30
0.0
 11
186.4573413515743
 21
117.8971515126402
 31
0.0
 70
   160
  1
<>
 42
81.0
  3
STANDARD-TC_020513_DIN
100
AcDbAlignedDimension
 13
205.8742394863671
 23
77.39715151264023
 33
0.0
 14
205.6242394863665
 24
158.3971515126402
 34
0.0
 50
270.0
100
AcDbRotatedDimension
1001
ACAD
1000
DSTYLE
1002
{
1070
   271
1070
     2
1070
   272
1070
     2
1070
    48
1040
0.0
1070
    47
1040
0.0
1002
}
  0
ENDSEC
  0
SECTION
  2
OBJECTS
  0
DICTIONARY
  5
C
330
0
100
AcDbDictionary
281
     1
  3
ACAD_COLOR
350
30
  3
ACAD_GROUP
350
D
  3
ACAD_LAYOUT
350
2F
  3
ACAD_MATERIAL
350
10
  3
ACAD_MLINESTYLE
350
2C
  3
ACAD_PLOTSETTINGS
350
2E
  3
ACAD_PLOTSTYLENAME
350
E
  3
ACAD_TABLESTYLE
350
31
  3
ACAD_VISUALSTYLE
350
14
  3
AcDbVariableDictionary
350
B32
  3
DWGPROPS
350
B38
  0
DICTIONARY
  5
B47
330
E3
100
AcDbDictionary
280
     1
281
     1
  3
ACAD_MTEXT_RT
360
B48
  0
DICTIONARY
  5
B49
330
F3
100
AcDbDictionary
280
     1
281
     1
  3
ACAD_MTEXT_RT
360
B4A
  0
DICTIONARY
  5
B4B
330
114
100
AcDbDictionary
280
     1
281
     1
  3
ACAD_MTEXT_RT
360
B4C
  0
DICTIONARY
  5
30
102
{ACAD_REACTORS
330
C
102
}
330
C
100
AcDbDictionary
281
     1
  0
DICTIONARY
  5
D
102
{ACAD_REACTORS
330
C
102
}
330
C
100
AcDbDictionary
281
     1
  0
DICTIONARY
  5
2F
102
{ACAD_REACTORS
330
C
102
}
330
C
100
AcDbDictionary
281
     1
  3
Layout1
350
36
  3
Layout2
350
3E
  3
Model
350
3A
  0
DICTIONARY
  5
10
102
{ACAD_REACTORS
330
C
102
}
330
C
100
AcDbDictionary
281
     1
  3
ByBlock
350
12
  3
ByLayer
350
11
  3
Global
350
13
  0
DICTIONARY
  5
2C
102
{ACAD_REACTORS
330
C
102
}
330
C
100
AcDbDictionary
281
     1
  3
Standard
350
2D
  0
DICTIONARY
  5
2E
102
{ACAD_REACTORS
330
C
102
}
330
C
100
AcDbDictionary
281
     1
  0
ACDBDICTIONARYWDFLT
  5
E
102
{ACAD_REACTORS
330
C
102
}
330
C
100
AcDbDictionary
281
     1
  3
Normal
350
F
100
AcDbDictionaryWithDefault
340
F
  0
DICTIONARY
  5
31
102
{ACAD_REACTORS
330
C
102
}
330
C
100
AcDbDictionary
281
     1
  3
Standard
350
32
  0
DICTIONARY
  5
14
102
{ACAD_REACTORS
330
C
102
}
330
C
100
AcDbDictionary
281
     1
  3
2dWireframe
350
1A
  3
3D Hidden
350
1C
  3
3dWireframe
350
1B
  3
Basic
350
19
  3
Brighten
350
20
  3
ColorChange
350
24
  3
Conceptual
350
1D
  3
Dim
350
1F
  3
Facepattern
350
23
  3
Flat
350
15
  3
FlatWithEdges
350
16
  3
Gouraud
350
17
  3
GouraudWithEdges
350
18
  3
Linepattern
350
22
  3
Realistic
350
1E
  3
Thicken
350
21
  0
DICTIONARY
  5
B32
102
{ACAD_REACTORS
330
C
102
}
330
C
100
AcDbDictionary
281
     1
  3
CTABLESTYLE
350
B33
  3
DIMASSOC
350
B37
  3
HIDETEXT
350
B36
  3
INDEXCTL
350
B35
  3
SORTENTS
350
B34
  0
XRECORD
  5
B38
102
{ACAD_REACTORS
330
C
102
}
330
C
100
AcDbXrecord
280
     1
  1
DWGPROPS COOKIE
  2

  3

  4
Hodapp
  6

  7

  8

  9

300
Manager=
301
Firma=
302
Kategorie=
303
Bauteilnummer=MVFV 16 LG25
304
Bezeichnung=
305
Projekt=
306
Konstrukteur=Hodapp
307
Ingenieur=
308
Bevollmächtigter=
309
Kostenstelle=
 40
0.0000732523148148
 41
2454105.734730671
 42
2454105.734730671
  1

 90
       22
300
Zulieferer=
300
Benutzerstatus=
300
Konstruktionsstatus=InBearbeitung
300
Kontrolliert von=
300
Konstruktion genehmigt von=
300
Fertigung genehmigt von=
300
FirstViewScale:1=1:1
300
SaveDate=08/30/2006
300
SaveTime=14:09
300
PaperSize=A4
300
AllViewScales=1:1
300
FirstViewScale=1:1
  0
XRECORD
  5
B48
102
{ACAD_REACTORS
330
B47
102
}
330
B47
100
AcDbXrecord
280
     1
 40
45260.0
  1
Für spanlose Bearbeitung
  0
XRECORD
  5
B4A
102
{ACAD_REACTORS
330
B49
102
}
330
B49
100
AcDbXrecord
280
     1
 40
49954.0
  1
Alle nicht bemaßten Radien R
  0
XRECORD
  5
B4C
102
{ACAD_REACTORS
330
B4B
102
}
330
B4B
100
AcDbXrecord
280
     1
 40
53914.0
  1
Werkstückkanten\Pnach ISO 13715
  0
LAYOUT
  5
36
102
{ACAD_XDICTIONARY
360
B41
102
}
102
{ACAD_REACTORS
330
2F
102
}
330
2F
100
AcDbPlotSettings
  1

  2

  4

  6

 40
0.0
 41
0.0
 42
0.0
 43
0.0
 44
0.0
 45
0.0
 46
0.0
 47
0.0
 48
0.0
 49
0.0
140
0.0
141
0.0
142
1.0
143
1.0
 70
   688
 72
     0
 73
     0
 74
     5
  7

 75
    16
147
1.0
148
0.0
149
0.0
100
AcDbLayout
  1
Layout1
 70
     1
 71
     1
 10
0.0
 20
0.0
 11
12.0
 21
9.0
 12
0.0
 22
0.0
 32
0.0
 14
0.0
 24
0.0
 34
0.0
 15
0.0
 25
0.0
 35
0.0
146
0.0
 13
0.0
 23
0.0
 33
0.0
 16
1.0
 26
0.0
 36
0.0
 17
0.0
 27
1.0
 37
0.0
 76
     0
330
33
  0
LAYOUT
  5
3E
102
{ACAD_XDICTIONARY
360
B45
102
}
102
{ACAD_REACTORS
330
2F
102
}
330
2F
100
AcDbPlotSettings
  1

  2

  4

  6

 40
0.0
 41
0.0
 42
0.0
 43
0.0
 44
0.0
 45
0.0
 46
0.0
 47
0.0
 48
0.0
 49
0.0
140
0.0
141
0.0
142
1.0
143
1.0
 70
   688
 72
     0
 73
     0
 74
     5
  7

 75
    16
147
1.0
148
0.0
149
0.0
100
AcDbLayout
  1
Layout2
 70
     1
 71
     2
 10
0.0
 20
0.0
 11
12.0
 21
9.0
 12
0.0
 22
0.0
 32
0.0
 14
0.0
 24
0.0
 34
0.0
 15
0.0
 25
0.0
 35
0.0
146
0.0
 13
0.0
 23
0.0
 33
0.0
 16
1.0
 26
0.0
 36
0.0
 17
0.0
 27
1.0
 37
0.0
 76
     0
330
3B
  0
LAYOUT
  5
3A
102
{ACAD_XDICTIONARY
360
B43
102
}
102
{ACAD_REACTORS
330
2F
102
}
330
2F
100
AcDbPlotSettings
  1

  2

  4

  6

 40
0.0
 41
0.0
 42
0.0
 43
0.0
 44
0.0
 45
0.0
 46
0.0
 47
0.0
 48
0.0
 49
0.0
140
0.0
141
0.0
142
1.0
143
1.0
 70
  1712
 72
     0
 73
     0
 74
     0
  7

 75
     0
147
1.0
148
0.0
149
0.0
100
AcDbLayout
  1
Model
 70
     1
 71
     0
 10
0.0
 20
0.0
 11
12.0
 21
9.0
 12
0.0
 22
0.0
 32
0.0
 14
0.0
 24
0.0
 34
0.0
 15
0.0
 25
0.0
 35
0.0
146
0.0
 13
0.0
 23
0.0
 33
0.0
 16
1.0
 26
0.0
 36
0.0
 17
0.0
 27
1.0
 37
0.0
 76
     0
330
37
  0
MATERIAL
  5
12
102
{ACAD_XDICTIONARY
360
B3B
102
}
102
{ACAD_REACTORS
330
10
102
}
330
10
100
AcDbMaterial
  1
ByBlock
  0
MATERIAL
  5
11
102
{ACAD_XDICTIONARY
360
B39
102
}
102
{ACAD_REACTORS
330
10
102
}
330
10
100
AcDbMaterial
  1
ByLayer
  0
MATERIAL
  5
13
102
{ACAD_XDICTIONARY
360
B3D
102
}
102
{ACAD_REACTORS
330
10
102
}
330
10
100
AcDbMaterial
  1
Global
  0
MLINESTYLE
  5
2D
102
{ACAD_REACTORS
330
2C
102
}
330
2C
100
AcDbMlineStyle
  2
STANDARD
 70
     0
  3

 62
   256
 51
90.0
 52
90.0
 71
     2
 49
0.5
 62
   256
  6
BYLAYER
 49
-0.5
 62
   256
  6
BYLAYER
  0
ACDBPLACEHOLDER
  5
F
102
{ACAD_REACTORS
330
E
102
}
330
E
  0
TABLESTYLE
  5
32
102
{ACAD_XDICTIONARY
360
B3F
102
}
102
{ACAD_REACTORS
330
31
102
}
330
31
100
AcDbTableStyle
  3
Standard
 70
     0
 71
     0
 40
0.06
 41
0.06
280
     0
281
     0
  7
Standard
140
0.18
170
     2
 62
     0
 63
     7
283
     0
274
    -2
284
     1
 64
     0
275
    -2
285
     1
 65
     0
276
    -2
286
     1
 66
     0
277
    -2
287
     1
 67
     0
278
    -2
288
     1
 68
     0
279
    -2
289
     1
 69
     0
  7
Standard
140
0.25
170
     5
 62
     0
 63
     7
283
     0
274
    -2
284
     1
 64
     0
275
    -2
285
     1
 65
     0
276
    -2
286
     1
 66
     0
277
    -2
287
     1
 67
     0
278
    -2
288
     1
 68
     0
279
    -2
289
     1
 69
     0
  7
Standard
140
0.18
170
     5
 62
     0
 63
     7
283
     0
274
    -2
284
     1
 64
     0
275
    -2
285
     1
 65
     0
276
    -2
286
     1
 66
     0
277
    -2
287
     1
 67
     0
278
    -2
288
     1
 68
     0
279
    -2
289
     1
 69
     0
  0
VISUALSTYLE
  5
1A
102
{ACAD_REACTORS
330
14
102
}
330
14
100
AcDbVisualStyle
  2
2dWireframe
 70
     4
 71
     0
 72
     2
 73
     0
 90
        0
 40
-0.6
 41
-30.0
 62
     5
 63
     7
 74
     1
 91
        4
 64
     7
 65
   257
 75
     1
175
     1
 42
1.0
 92
        0
 66
   257
 43
1.0
 76
     1
 77
     6
 78
     2
 67
     7
 79
     5
170
     0
171
     0
290
     0
174
     0
 93
        1
 44
0.0
173
     0
291
     0
 45
0.0
1001
ACAD
1000
AcDbSavedByObjectVersion
1070
     0
  0
VISUALSTYLE
  5
1C
102
{ACAD_REACTORS
330
14
102
}
330
14
100
AcDbVisualStyle
  2
3D Hidden
 70
     6
 71
     1
 72
     2
 73
     2
 90
        0
 40
-0.6
 41
-30.0
 62
     5
 63
     7
 74
     2
 91
        2
 64
     7
 65
   257
 75
     2
175
     1
 42
40.0
 92
        0
 66
   257
 43
1.0
 76
     1
 77
     6
 78
     2
 67
     7
 79
     3
170
     0
171
     0
290
     0
174
     0
 93
        1
 44
0.0
173
     0
291
     0
 45
0.0
1001
ACAD
1000
AcDbSavedByObjectVersion
1070
     0
  0
VISUALSTYLE
  5
1B
102
{ACAD_REACTORS
330
14
102
}
330
14
100
AcDbVisualStyle
  2
3dWireframe
 70
     5
 71
     0
 72
     2
 73
     0
 90
        0
 40
-0.6
 41
-30.0
 62
     5
 63
     7
 74
     1
 91
        4
 64
     7
 65
   257
 75
     1
175
     1
 42
1.0
 92
        0
 66
   257
 43
1.0
 76
     1
 77
     6
 78
     2
 67
     7
 79
     5
170
     0
171
     0
290
     0
174
     0
 93
        1
 44
0.0
173
     0
291
     0
 45
0.0
1001
ACAD
1000
AcDbSavedByObjectVersion
1070
     0
  0
VISUALSTYLE
  5
19
102
{ACAD_REACTORS
330
14
102
}
330
14
100
AcDbVisualStyle
  2
Basic
 70
     7
 71
     1
 72
     0
 73
     1
 90
        0
 40
-0.6
 41
-30.0
 62
     5
 63
     7
 74
     0
 91
        4
 64
     7
 65
   257
 75
     1
175
     1
 42
1.0
 92
        8
 66
     7
 43
1.0
 76
     1
 77
     6
 78
     2
 67
     7
 79
     5
170
     0
171
     0
290
     0
174
     0
 93
        1
 44
0.0
173
     0
291
     1
 45
0.0
1001
ACAD
1000
AcDbSavedByObjectVersion
1070
     0
  0
VISUALSTYLE
  5
20
102
{ACAD_REACTORS
330
14
102
}
330
14
100
AcDbVisualStyle
  2
Brighten
 70
    12
 71
     2
 72
     2
 73
     0
 90
        0
 40
-0.6
 41
-30.0
 62
     5
 63
     7
 74
     1
 91
        4
 64
     7
 65
   257
 75
     1
175
     1
 42
1.0
 92
        8
 66
     7
 43
1.0
 76
     1
 77
     6
 78
     2
 67
     7
 79
     5
170
     0
171
     0
290
     0
174
     0
 93
        1
 44
50.0
173
     0
291
     1
 45
0.0
1001
ACAD
1000
AcDbSavedByObjectVersion
1070
     0
  0
VISUALSTYLE
  5
24
102
{ACAD_REACTORS
330
14
102
}
330
14
100
AcDbVisualStyle
  2
ColorChange
 70
    16
 71
     2
 72
     2
 73
     3
 90
        0
 40
-0.6
 41
-30.0
 62
     5
 63
     8
 74
     1
 91
        4
 64
     7
 65
   257
 75
     1
175
     1
 42
1.0
 92
        8
 66
     8
 43
1.0
 76
     1
 77
     6
 78
     2
 67
     7
 79
     5
170
     0
171
     0
290
     0
174
     0
 93
        1
 44
0.0
173
     0
291
     1
 45
0.0
1001
ACAD
1000
AcDbSavedByObjectVersion
1070
     0
  0
VISUALSTYLE
  5
1D
102
{ACAD_REACTORS
330
14
102
}
330
14
100
AcDbVisualStyle
  2
Conceptual
 70
     9
 71
     3
 72
     2
 73
     0
 90
        0
 40
-0.6
 41
-30.0
 62
     5
 63
     7
 74
     2
 91
        2
 64
     7
 65
   257
 75
     1
175
     1
 42
40.0
 92
        8
 66
     7
 43
1.0
 76
     1
 77
     6
 78
     2
 67
     7
 79
     3
170
     0
171
     0
290
     0
174
     0
 93
        1
 44
0.0
173
     0
291
     0
 45
0.0
1001
ACAD
1000
AcDbSavedByObjectVersion
1070
     0
  0
VISUALSTYLE
  5
1F
102
{ACAD_REACTORS
330
14
102
}
330
14
100
AcDbVisualStyle
  2
Dim
 70
    11
 71
     2
 72
     2
 73
     0
 90
        0
 40
-0.6
 41
-30.0
 62
     5
 63
     7
 74
     1
 91
        4
 64
     7
 65
   257
 75
     1
175
     1
 42
1.0
 92
        8
 66
     7
 43
1.0
 76
     1
 77
     6
 78
     2
 67
     7
 79
     5
170
     0
171
     0
290
     0
174
     0
 93
        1
 44
-50.0
173
     0
291
     1
 45
0.0
1001
ACAD
1000
AcDbSavedByObjectVersion
1070
     0
  0
VISUALSTYLE
  5
23
102
{ACAD_REACTORS
330
14
102
}
330
14
100
AcDbVisualStyle
  2
Facepattern
 70
    15
 71
     2
 72
     2
 73
     0
 90
        0
 40
-0.6
 41
-30.0
 62
     5
 63
     7
 74
     1
 91
        4
 64
     7
 65
   257
 75
     1
175
     1
 42
1.0
 92
        8
 66
     7
 43
1.0
 76
     1
 77
     6
 78
     2
 67
     7
 79
     5
170
     0
171
     0
290
     0
174
     0
 93
        1
 44
0.0
173
     0
291
     1
 45
0.0
1001
ACAD
1000
AcDbSavedByObjectVersion
1070
     0
  0
VISUALSTYLE
  5
15
102
{ACAD_REACTORS
330
14
102
}
330
14
100
AcDbVisualStyle
  2
Flat
 70
     0
 71
     2
 72
     1
 73
     1
 90
        2
 40
-0.6
 41
30.0
 62
     5
 63
     7
 74
     0
 91
        4
 64
     7
 65
   257
 75
     1
175
     1
 42
1.0
 92
        8
 66
     7
 43
1.0
 76
     1
 77
     6
 78
     2
 67
     7
 79
     5
170
     0
171
     0
290
     0
174
     0
 93
       13
 44
0.0
173
     0
291
     1
 45
0.0
1001
ACAD
1000
AcDbSavedByObjectVersion
1070
     0
  0
VISUALSTYLE
  5
16
102
{ACAD_REACTORS
330
14
102
}
330
14
100
AcDbVisualStyle
  2
FlatWithEdges
 70
     1
 71
     2
 72
     1
 73
     1
 90
        2
 40
-0.6
 41
30.0
 62
     5
 63
     7
 74
     1
 91
        4
 64
     7
 65
   257
 75
     1
175
     1
 42
1.0
 92
        0
 66
   257
 43
1.0
 76
     1
 77
     6
 78
     2
 67
     7
 79
     5
170
     0
171
     0
290
     0
174
     0
 93
       13
 44
0.0
173
     0
291
     1
 45
0.0
1001
ACAD
1000
AcDbSavedByObjectVersion
1070
     0
  0
VISUALSTYLE
  5
17
102
{ACAD_REACTORS
330
14
102
}
330
14
100
AcDbVisualStyle
  2
Gouraud
 70
     2
 71
     2
 72
     2
 73
     1
 90
        2
 40
-0.6
 41
30.0
 62
     5
 63
     7
 74
     0
 91
        4
 64
     7
 65
   257
 75
     1
175
     1
 42
1.0
 92
        0
 66
     7
 43
1.0
 76
     1
 77
     6
 78
     2
 67
     7
 79
     5
170
     0
171
     0
290
     0
174
     0
 93
       13
 44
0.0
173
     0
291
     1
 45
0.0
1001
ACAD
1000
AcDbSavedByObjectVersion
1070
     0
  0
VISUALSTYLE
  5
18
102
{ACAD_REACTORS
330
14
102
}
330
14
100
AcDbVisualStyle
  2
GouraudWithEdges
 70
     3
 71
     2
 72
     2
 73
     1
 90
        2
 40
-0.6
 41
30.0
 62
     5
 63
     7
 74
     1
 91
        4
 64
     7
 65
   257
 75
     1
175
     1
 42
1.0
 92
        0
 66
   257
 43
1.0
 76
     1
 77
     6
 78
     2
 67
     7
 79
     5
170
     0
171
     0
290
     0
174
     0
 93
       13
 44
0.0
173
     0
291
     1
 45
0.0
1001
ACAD
1000
AcDbSavedByObjectVersion
1070
     0
  0
VISUALSTYLE
  5
22
102
{ACAD_REACTORS
330
14
102
}
330
14
100
AcDbVisualStyle
  2
Linepattern
 70
    14
 71
     2
 72
     2
 73
     0
 90
        0
 40
-0.6
 41
-30.0
 62
     5
 63
     7
 74
     1
 91
        4
 64
     7
 65
   257
 75
     7
175
     7
 42
1.0
 92
        8
 66
     7
 43
1.0
 76
     1
 77
     6
 78
     2
 67
     7
 79
     5
170
     0
171
     0
290
     0
174
     0
 93
        1
 44
0.0
173
     0
291
     1
 45
0.0
1001
ACAD
1000
AcDbSavedByObjectVersion
1070
     0
  0
VISUALSTYLE
  5
1E
102
{ACAD_REACTORS
330
14
102
}
330
14
100
AcDbVisualStyle
  2
Realistic
 70
     8
 71
     2
 72
     2
 73
     0
 90
        0
 40
-0.6
 41
-30.0
 62
     5
 63
     7
 74
     1
 91
        0
 64
     7
 65
   257
 75
     1
175
     1
 42
1.0
 92
        8
 66
     8
 43
1.0
 76
     1
 77
     6
 78
     2
 67
     7
 79
     5
170
     0
171
     0
290
     0
174
     0
 93
       13
 44
0.0
173
     0
291
     0
 45
0.0
1001
ACAD
1000
AcDbSavedByObjectVersion
1070
     0
  0
VISUALSTYLE
  5
21
102
{ACAD_REACTORS
330
14
102
}
330
14
100
AcDbVisualStyle
  2
Thicken
 70
    13
 71
     2
 72
     2
 73
     0
 90
        0
 40
-0.6
 41
-30.0
 62
     5
 63
     7
 74
     1
 91
        4
 64
     7
 65
   257
 75
     1
175
     1
 42
1.0
 92
       12
 66
     7
 43
1.0
 76
     1
 77
     6
 78
     2
 67
     7
 79
     5
170
     0
171
     0
290
     0
174
     0
 93
        1
 44
0.0
173
     0
291
     1
 45
0.0
1001
ACAD
1000
AcDbSavedByObjectVersion
1070
     0
  0
DICTIONARYVAR
  5
B33
102
{ACAD_REACTORS
330
B32
102
}
330
B32
100
DictionaryVariables
280
     0
  1
STANDARD
  0
DICTIONARYVAR
  5
B37
102
{ACAD_REACTORS
330
B32
102
}
330
B32
100
DictionaryVariables
280
     0
  1
1
  0
DICTIONARYVAR
  5
B36
102
{ACAD_REACTORS
330
B32
102
}
330
B32
100
DictionaryVariables
280
     0
  1
1
  0
DICTIONARYVAR
  5
B35
102
{ACAD_REACTORS
330
B32
102
}
330
B32
100
DictionaryVariables
280
     0
  1
0
  0
DICTIONARYVAR
  5
B34
102
{ACAD_REACTORS
330
B32
102
}
330
B32
100
DictionaryVariables
280
     0
  1
127
  0
DICTIONARY
  5
B41
330
36
100
AcDbDictionary
280
     1
281
     1
  3
ACAD_XREC_ROUNDTRIP
360
B42
  0
DICTIONARY
  5
B45
330
3E
100
AcDbDictionary
280
     1
281
     1
  3
ACAD_XREC_ROUNDTRIP
360
B46
  0
DICTIONARY
  5
B43
330
3A
100
AcDbDictionary
280
     1
281
     1
  3
ACAD_XREC_ROUNDTRIP
360
B44
  0
DICTIONARY
  5
B3B
330
12
100
AcDbDictionary
280
     1
281
     1
  3
ACAD_XREC_ROUNDTRIP
360
B3C
  0
DICTIONARY
  5
B39
330
11
100
AcDbDictionary
280
     1
281
     1
  3
ACAD_XREC_ROUNDTRIP
360
B3A
  0
DICTIONARY
  5
B3D
330
13
100
AcDbDictionary
280
     1
281
     1
  3
ACAD_XREC_ROUNDTRIP
360
B3E
  0
DICTIONARY
  5
B3F
330
32
100
AcDbDictionary
280
     1
281
     1
  3
ACAD_XREC_ROUNDTRIP
360
B40
  0
XRECORD
  5
B42
102
{ACAD_REACTORS
330
B41
102
}
330
B41
100
AcDbXrecord
280
     1
102
SHADEPLOT
 70
     0
102
SHADEPLOTRESLEVEL
 70
     2
102
SHADEPLOTCUSTOMDPI
 70
   300
  0
XRECORD
  5
B46
102
{ACAD_REACTORS
330
B45
102
}
330
B45
100
AcDbXrecord
280
     1
102
SHADEPLOT
 70
     0
102
SHADEPLOTRESLEVEL
 70
     2
102
SHADEPLOTCUSTOMDPI
 70
   300
  0
XRECORD
  5
B44
102
{ACAD_REACTORS
330
B43
102
}
330
B43
100
AcDbXrecord
280
     1
102
SHADEPLOT
 70
     0
102
SHADEPLOTRESLEVEL
 70
     2
102
SHADEPLOTCUSTOMDPI
 70
   300
  0
XRECORD
  5
B3C
102
{ACAD_REACTORS
330
B3B
102
}
330
B3B
100
AcDbXrecord
280
     1
102
MATERIAL
148
0.0
149
0.0
149
0.0
 93
        0
 94
       63
282
     0
 72
     1
 77
     1
171
     1
175
     1
179
     1
273
     0
  0
XRECORD
  5
B3A
102
{ACAD_REACTORS
330
B39
102
}
330
B39
100
AcDbXrecord
280
     1
102
MATERIAL
148
0.0
149
0.0
149
0.0
 93
        0
 94
       63
282
     0
 72
     1
 77
     1
171
     1
175
     1
179
     1
273
     0
  0
XRECORD
  5
B3E
102
{ACAD_REACTORS
330
B3D
102
}
330
B3D
100
AcDbXrecord
280
     1
102
MATERIAL
148
0.0
149
0.0
149
0.0
 93
        0
 94
       63
282
     0
 72
     1
 77
     1
171
     1
175
     1
179
     1
273
     0
  0
XRECORD
  5
B40
102
{ACAD_REACTORS
330
B3F
102
}
330
B3F
100
AcDbXrecord
280
     1
102
ACAD_ROUNDTRIP_PRE2007_TABLESTYLE
 90
      512
 91
        0
  1

 92
      512
 93
        0
  2

 94
      512
 95
        0
  3

  0
ENDSEC
  0
EOF
